The Debt

Sır

TS READNFO XviD - DUBBY

Language | Dublaj Dili : English
Release Date | Gösterim Tarihi : 2010
Uploaded By EmRebLs (16 Eylül 2011 )

Bu paylaşımın toplam boyutu 699 MB olup, Fileserve Bitshare Filesonic Netload Uploaded Wupload sunucularına upload edilmiştir.

Altyazı Takip Linki : http://www.turkcealtyazi.org/mov/1226753/the-debt.html







http://www.imdb.com/title/tt1226753/



Alıntı

Sinemalar.com Puanı:
5.9/10
Yapım:
2010 ~ ABD
Tür:
Aksiyon, Casusluk, Dram, Gerilim
Yönetmen:
John Madden
Oyuncular:
Sam Worthington, Helen Mirren, Tom Wilkinson, Marton Csokas, Ciaran Hinds, Jessica Chastain, Adar Beck, Jesper Christensen, Nitzan Sharron, Romi Aboulafia
Senaryo:
Matthew Vaughn, Ido Rosenblum, Assaf Bernstein, Jane Goldman, Peter Straughan
Yapımcı:
Matthew Vaughn, Eduardo Rossoff, Kris Thykier
Görüntü Yönetmeni:
Ben Davis
Müzik:
Thomas Newman
Dağıtım:
UIP Filmcilik
Filmin Websitesi:
thedebtmovie.com
Süre:
1 saat 54 dk
Gösterim Tarihi:
29 Aralık 2010 (ABD)
Filmin Özeti

1965 yılında üç MOSSAD ajanının görevi, Nazi rejiminin savaş suçlulularını bulup ortadan kaldırmaktır. Aradan otuz yıl geçmiştir. Ukrayna'da eski bir Nazi kalıntısının olduğu ihbarı alınınca ajanlardan biri göreve çağrılır. Amacı kimlik değiştirerek olası şüphelinin gerçek bir Nazi olup olmadığını açığa çıkarmaktır.


 

General
Complete name                    : The.Debt.2011.TS.READNFO.XviD-DUBBY.avi
Format                           : AVI
Format/Info                      : Audio Video Interleave
File size                        : 700 MiB
Duration                         : 1h 46mn
Overall bit rate                 : 916 Kbps
Writing application              : VirtualDubMod 1.5.4.1 (build 2178/release)
Writing library                  : VirtualDub build 32842/release

Video
Format                           : MPEG-4 Visual
Format profile                   : Streaming [email protected]
Format settings, BVOP            : Yes
Format settings, QPel            : No
Format settings, GMC             : No warppoints
Format settings, Matrix          : Default
Muxing mode                      : Packed bitstream
Codec ID                         : XVID
Codec ID/Hint                    : XviD
Duration                         : 1h 46mn
Bit rate                         : 778 Kbps
Width                            : 640 pixels
Height                           : 272 pixels
Display aspect ratio             : 2.35
Frame rate                       : 25.000 fps
Resolution                       : 24 bits
Colorimetry                      : 4:2:0
Scan type                        : Progressive
Bits/(Pixel*Frame)               : 0.179
Stream size                      : 594 MiB (85%)
Writing library                  : XviD 64

Audio
Format                           : MPEG Audio
Format version                   : Version 1
Format profile                   : Layer 3
Codec ID                         : 55
Codec ID/Hint                    : MP3
Duration                         : 1h 46mn
Bit rate mode                    : Constant
Bit rate                         : 128 Kbps
Channel(s)                       : 1 channel
Sampling rate                    : 44.1 KHz
Resolution                       : 16 bits
Video delay                      : 10s 292ms
Stream size                      : 97.8 MiB (14%)
Alignment                        : Split accross interleaves
Interleave, duration             : 40 ms (1.00 video frame)
Interleave, preload duration     : 500 ms










Bir Part Boyutu: 205 MB - Toplam Boyut: 699 MB





[HIDE]
 
http://www.fileserve.com/file/gPAhqVN/CSHTR.16911.F.EmRebLs.Dp.2011.T.CSHTR.com.part1.rar
http://www.fileserve.com/file/AMxFqVT/CSHTR.16911.F.EmRebLs.Dp.2011.T.CSHTR.com.part2.rar
http://www.fileserve.com/file/5QXVBP9/CSHTR.16911.F.EmRebLs.Dp.2011.T.CSHTR.com.part3.rar
http://www.fileserve.com/file/tUmTdja/CSHTR.16911.F.EmRebLs.Dp.2011.T.CSHTR.com.part4.rar
[/HIDE]



[HIDE]
 
http://bitshare.com/files/45ggzbiy/CSHTR.16911.F.EmRebLs.Dp.2011.T.CSHTR.com.part1.rar.html
http://bitshare.com/files/amdxzqgp/CSHTR.16911.F.EmRebLs.Dp.2011.T.CSHTR.com.part2.rar.html
http://bitshare.com/files/99m4t1oy/CSHTR.16911.F.EmRebLs.Dp.2011.T.CSHTR.com.part3.rar.html
http://bitshare.com/files/tmwt6ioo/CSHTR.16911.F.EmRebLs.Dp.2011.T.CSHTR.com.part4.rar.html
[/HIDE]



[HIDE]
 
http://www.filesonic.com/file/2014132754/CSHTR.16911.F.EmRebLs.Dp.2011.T.CSHTR.com.part1.rar
http://www.filesonic.com/file/2014212844/CSHTR.16911.F.EmRebLs.Dp.2011.T.CSHTR.com.part2.rar
http://www.filesonic.com/file/2014133794/CSHTR.16911.F.EmRebLs.Dp.2011.T.CSHTR.com.part3.rar
http://www.filesonic.com/file/2014132804/CSHTR.16911.F.EmRebLs.Dp.2011.T.CSHTR.com.part4.rar
[/HIDE]



[HIDE]
 

http://www.netload.in/datei7XKKhC7mkR/CSHTR.16911.F.EmRebLs.Dp.2011.T.CSHTR.com.part1.rar.htm
http://www.netload.in/dateiMjlHO4hhd6/CSHTR.16911.F.EmRebLs.Dp.2011.T.CSHTR.com.part2.rar.htm
http://www.netload.in/dateiufl05TOSP5/CSHTR.16911.F.EmRebLs.Dp.2011.T.CSHTR.com.part3.rar.htm
http://www.netload.in/dateimcyXImzoiM/CSHTR.16911.F.EmRebLs.Dp.2011.T.CSHTR.com.part4.rar.htm
[/HIDE]



[HIDE]
 
http://ul.to/r74dq95d/CSHTR.16911.F.EmRebLs.Dp.2011.T.CSHTR.com.part1.rar
http://ul.to/0xowt98s/CSHTR.16911.F.EmRebLs.Dp.2011.T.CSHTR.com.part2.rar
http://ul.to/dna3e9k6/CSHTR.16911.F.EmRebLs.Dp.2011.T.CSHTR.com.part3.rar
http://ul.to/agwx59k7/CSHTR.16911.F.EmRebLs.Dp.2011.T.CSHTR.com.part4.rar
[/HIDE]



[HIDE]
 
http://www.wupload.com/file/178558043/CSHTR.16911.F.EmRebLs.Dp.2011.T.CSHTR.com.part1.rar
http://www.wupload.com/file/178559257/CSHTR.16911.F.EmRebLs.Dp.2011.T.CSHTR.com.part2.rar
http://www.wupload.com/file/178559226/CSHTR.16911.F.EmRebLs.Dp.2011.T.CSHTR.com.part3.rar
http://www.wupload.com/file/178558816/CSHTR.16911.F.EmRebLs.Dp.2011.T.CSHTR.com.part4.rar
[/HIDE]







www.cshtr.com