emlaklik & sedatyucel

Vanishing.On.7th.Street | 2010 | R5. XViD | HF FS NL | Download | iNDiR

Vanishing.On.7th.Street. R5. XViD Language | Dublaj Dili : English Release Date | Gösterim Tarihi : 2010 Upload By geompac (15 Mart 2011 ) http://www.cshtr.com/images/hareketli/afis.gif

Bu konu 1299 kez görüntülendi ve 1 yorum aldı ...

    Konuyu değerlendir: Vanishing.On.7th.Street | 2010 | R5. XViD | HF FS NL | Download | iNDiR

    5 üzerinden | Toplam: 0 kişi oyladı ve 1299 kez incelendi.


Toplam 2 adet sonuctan sayfa basi 1 ile 2 arasi kadar sonuc gösteriliyor
  1. #1

    Genel Yönetici

    R5 Vanishing.On.7th.Street | 2010 | R5. XViD | HF FS NL | Download | iNDiR

    Vanishing.On.7th.Street.

    R5. XViD

    Language | Dublaj Dili : English
    Release Date | Gösterim Tarihi : 2010
    Upload By geompac (15 Mart 2011 )







    http://www.imdb.com/title/tt1452628/



     
    
    Specs::
    
    General
    
    Format                           : AVI
    Format/Info                      : Audio Video Interleave
    File size                        : 1.41 GiB
    Duration                         : 1h 22mn
    Overall bit rate                 : 2 453 Kbps
    Writing application              : VirtualDubMod 1.5.10.2 (build 2542/release)
    Writing library                  : VirtualDubMod build 2542/release
    
    Video
    ID                               : 0
    Format                           : MPEG-4 Visual
    Format profile                   : Advanced [email protected]
    Format settings, BVOP            : Yes
    Format settings, QPel            : No
    Format settings, GMC             : No warppoints
    Format settings, Matrix          : Default (H.263)
    Codec ID                         : XVID
    Codec ID/Hint                    : XviD
    Duration                         : 1h 22mn
    Bit rate                         : 2 251 Kbps
    Width                            : 720 pixels
    Height                           : 384 pixels
    Display aspect ratio             : 1.875
    Frame rate                       : 25.000 fps
    Color space                      : YUV
    Chroma subsampling               : 4:2:0
    Bit depth                        : 8 bits
    Scan type                        : Progressive
    Bits/(Pixel*Frame)               : 0.326
    Stream size                      : 1.29 GiB (92%)
    Writing library                  : XviD 1.2.1 (UTC 2008-12-04)
    
    Audio
    ID                               : 1
    Format                           : AC-3
    Format/Info                      : Audio Coding 3
    Mode extension                   : CM (complete main)
    Codec ID                         : 2000
    Duration                         : 1h 22mn
    Bit rate mode                    : Constant
    Bit rate                         : 192 Kbps
    Channel(s)                       : 2 channels
    Channel positions                : Front: L R
    Sampling rate                    : 48.0 KHz
    Bit depth                        : 16 bits
    Stream size                      : 113 MiB (8%)
    Alignment                        : Split accross interleaves
    Interleave, duration             : 40 ms (1.00 video frame)
    Interleave, preload duration     : 500 ms
    











    Bir Part Boyutu: 200 MB - Toplam Boyut: 1,4 GB





    [HIDE]
     
    http://hotfile.com/dl/110386832/a55573a/CSHTR.geompac.VNSHNGNSVNTHSTRT.2010.RBS.vip.cshtr.com.part1.rar.html
    http://hotfile.com/dl/110386849/7dc2395/CSHTR.geompac.VNSHNGNSVNTHSTRT.2010.RBS.vip.cshtr.com.part2.rar.html
    http://hotfile.com/dl/110386887/19f0e10/CSHTR.geompac.VNSHNGNSVNTHSTRT.2010.RBS.vip.cshtr.com.part3.rar.html
    http://hotfile.com/dl/110386894/2cc0e8c/CSHTR.geompac.VNSHNGNSVNTHSTRT.2010.RBS.vip.cshtr.com.part4.rar.html
    http://hotfile.com/dl/110386908/a0b367c/CSHTR.geompac.VNSHNGNSVNTHSTRT.2010.RBS.vip.cshtr.com.part5.rar.html
    http://hotfile.com/dl/110386920/0e998d7/CSHTR.geompac.VNSHNGNSVNTHSTRT.2010.RBS.vip.cshtr.com.part6.rar.html
    http://hotfile.com/dl/110386938/87a7f75/CSHTR.geompac.VNSHNGNSVNTHSTRT.2010.RBS.vip.cshtr.com.part7.rar.html
    http://hotfile.com/dl/110386943/7d731bd/CSHTR.geompac.VNSHNGNSVNTHSTRT.2010.RBS.vip.cshtr.com.part8.rar.html
    [/HIDE]



    [HIDE]
     
    http://www.fileserve.com/file/rEgyxEu/CSHTR.geompac.VNSHNGNSVNTHSTRT.2010.RBS.vip.cshtr.com.part1.rar
    http://www.fileserve.com/file/cfEWe5a/CSHTR.geompac.VNSHNGNSVNTHSTRT.2010.RBS.vip.cshtr.com.part2.rar
    http://www.fileserve.com/file/PBq8YCs/CSHTR.geompac.VNSHNGNSVNTHSTRT.2010.RBS.vip.cshtr.com.part3.rar
    http://www.fileserve.com/file/yWRpnPt/CSHTR.geompac.VNSHNGNSVNTHSTRT.2010.RBS.vip.cshtr.com.part4.rar
    http://www.fileserve.com/file/tmGcAJP/CSHTR.geompac.VNSHNGNSVNTHSTRT.2010.RBS.vip.cshtr.com.part5.rar
    http://www.fileserve.com/file/j8z7a9M/CSHTR.geompac.VNSHNGNSVNTHSTRT.2010.RBS.vip.cshtr.com.part6.rar
    http://www.fileserve.com/file/RpswxNZ/CSHTR.geompac.VNSHNGNSVNTHSTRT.2010.RBS.vip.cshtr.com.part7.rar
    http://www.fileserve.com/file/usKBVsS/CSHTR.geompac.VNSHNGNSVNTHSTRT.2010.RBS.vip.cshtr.com.part8.rar
    http://www.fileserve.com/file/GHHqNCb/CSHTR.geompac.VNSHNGNSVNTHSTRT.2010.RBS.vip.cshtr.com.part8.rar
    [/HIDE]



    [HIDE]
     
    http://netload.in/dateiU4p8V9BrOC/CSHTR.geompac.VNSHNGNSVNTHSTRT.2010.RBS.vip.cshtr.com.part1.rar.htm
    http://netload.in/dateioeCoNAID1b/CSHTR.geompac.VNSHNGNSVNTHSTRT.2010.RBS.vip.cshtr.com.part2.rar.htm
    http://netload.in/dateix4bJpY2iNv/CSHTR.geompac.VNSHNGNSVNTHSTRT.2010.RBS.vip.cshtr.com.part3.rar.htm
    http://netload.in/dateiYMXHiynHAq/CSHTR.geompac.VNSHNGNSVNTHSTRT.2010.RBS.vip.cshtr.com.part4.rar.htm
    http://netload.in/dateiDo1spJa4UE/CSHTR.geompac.VNSHNGNSVNTHSTRT.2010.RBS.vip.cshtr.com.part5.rar.htm
    http://netload.in/dateiapUwjtlojL/CSHTR.geompac.VNSHNGNSVNTHSTRT.2010.RBS.vip.cshtr.com.part6.rar.htm
    http://netload.in/dateisRi8oiA20I/CSHTR.geompac.VNSHNGNSVNTHSTRT.2010.RBS.vip.cshtr.com.part7.rar.htm
    http://netload.in/datei8qY8HpGY3r/CSHTR.geompac.VNSHNGNSVNTHSTRT.2010.RBS.vip.cshtr.com.part8.rar.htm
    [/HIDE]



    [HIDE]
     
    http://www.enterupload.com/6i7x8652ckld/CSHTR.geompac.VNSHNGNSVNTHSTRT.2010.RBS.vip.cshtr.com.part1.rar.html
    http://www.enterupload.com/v9zvyrpyy2ob/CSHTR.geompac.VNSHNGNSVNTHSTRT.2010.RBS.vip.cshtr.com.part2.rar.html
    http://www.enterupload.com/j5so60dry4nr/CSHTR.geompac.VNSHNGNSVNTHSTRT.2010.RBS.vip.cshtr.com.part3.rar.html
    http://www.enterupload.com/s444otv7tucr/CSHTR.geompac.VNSHNGNSVNTHSTRT.2010.RBS.vip.cshtr.com.part4.rar.html
    http://www.enterupload.com/2sp4iuck5x4v/CSHTR.geompac.VNSHNGNSVNTHSTRT.2010.RBS.vip.cshtr.com.part5.rar.html
    http://www.enterupload.com/80p2kgendf9z/CSHTR.geompac.VNSHNGNSVNTHSTRT.2010.RBS.vip.cshtr.com.part6.rar.html
    http://www.enterupload.com/qlsj76bcws5f/CSHTR.geompac.VNSHNGNSVNTHSTRT.2010.RBS.vip.cshtr.com.part7.rar.html
    http://www.enterupload.com/h4iijgjng0sc/CSHTR.geompac.VNSHNGNSVNTHSTRT.2010.RBS.vip.cshtr.com.part8.rar.html
    [/HIDE]







    www.cshtr.com


    marty77 bunu beğendi.

  2. #2

    Genel Yönetici

    Standart

    linkler eklendi.

Benzer Konular

  1. Cevap: 70
    Son Mesaj : 08.Haziran.2011, 14:39
  2. Vanishing on 7th Street | Kıyamet Gecesi | 06.05.2011
    Konu Sahibi EnGeReK Forum SineKafe | Film Dizi Sohbet | Afiş Fragman
    Cevap: 0
    Son Mesaj : 05.Mayıs.2011, 23:04
  3. Main Street | 2010 | DVDRip XviD-NYDIC | HF FS NL | Download | iNDiR
    Konu Sahibi aswere Forum DVDRip | DVBRip Orj
    Cevap: 1
    Son Mesaj : 16.Mart.2011, 12:00
  4. Vanishing.On.7th.Street | 2010
    Konu Sahibi geompac Forum Portal Film
    Cevap: 1
    Son Mesaj : 16.Mart.2011, 11:15
  5. Main Street | Ana Cadde | 2010 | TR | DVDRiP | HF FS NL | Download | iNDiR
    Konu Sahibi Eticon Forum DVDRip | DVBRip DuaL-TR
    Cevap: 2
    Son Mesaj : 13.Mart.2011, 23:38