emlaklik & sedatyucel

Mothers Little Helpers | Workprint XviD TA | 2010 | Rapid | Download | iNDiR

Mothers Little Helpers Annenin Küçük Yardımcıları Workprint XviD TA Language | Dublaj Dili : English Release Date | Gösterim Tarihi : 20 Aralık 2010 (USA) Upload By geompac ( 07 Mayıs 2010 )

Bu konu 2755 kez görüntülendi ve 2 yorum aldı ...

    Konuyu değerlendir: Mothers Little Helpers | Workprint XviD TA | 2010 | Rapid | Download | iNDiR

    5 üzerinden | Toplam: 0 kişi oyladı ve 2755 kez incelendi.


Toplam 3 adet sonuctan sayfa basi 1 ile 3 arasi kadar sonuc gösteriliyor
  1. #1

    Genel Yönetici

    Poll Mothers Little Helpers | Workprint XviD TA | 2010 | Rapid | Download | iNDiR


    Mothers Little Helpers

    Annenin Küçük Yardımcıları

    Workprint XviD TA

    Language | Dublaj Dili : English
    Release Date | Gösterim Tarihi : 20 Aralık 2010 (USA)
    Upload By geompac ( 07 Mayıs 2010 )







    http://www.imdb.com/title/tt1198075/





    Alıntı

    Release Date: 20 December 2010 (USA)
    Plot:
    A story of love, sex... and high school tuition. Meet Sam Lowell.
    Friend, lover, student, teacher... and owner of his very own escort
    service. Along with his "mother's little helpers" Sam learns about love
    and life in this sophisticated take on the classic high school sex comedy
    that explores a generation of kids growing up too fast and their parents
    who are desperately trying to stay young.

    Denise Richards ... Judy
    Kyle Gallner ... Sam
    Sarah Hyland ... Courtney
    James Belushi ... Dan Fox
    Kathryn Morris ... Alison
    Rebecca Mader ... Mary
    Maeve Quinlan ... Kitty Lowell
    Ryan Pinkston ... Jimmy Rissoli
    Robert Belushi ... Shawn Fox


    Alıntı
    Source : Workprint
    General
    Complete name : Mothers.Little.Helpers.2010.WP .XviD-TA.avi
    Format : AVI
    Format/Info : Audio Video Interleave
    File size : 857 MiB
    Duration : 1h 26mn
    Overall bit rate : 1 386 Kbps
    Writing library : VirtualDub build 32661/release

    Video
    ID : 0
    Format : MPEG-4 Visual
    Format profile : [email protected]
    Format settings, BVOP : Yes
    Format settings, QPel : No
    Format settings, GMC : No warppoints
    Format settings, Matrix : Default (H.263)
    Codec ID : XVID
    Codec ID/Hint : XviD
    Duration : 1h 26mn
    Bit rate : 1 213 Kbps
    Width : 720 pixels
    Height : 480 pixels
    Display aspect ratio : 1.500
    Frame rate : 29.970 fps
    Standard : NTSC
    Resolution : 24 bits
    Colorimetry : 4:2:0
    Scan type : Progressive
    Bits/(Pixel*Frame) : 0.117
    Stream size : 750 MiB (87%)
    Writing library : XviD 1.1.2 (UTC 2006-11-01)

    Audio
    ID : 1
    Format : MPEG Audio
    Format version : Version 1
    Format profile : Layer 3
    Codec ID : 55
    Codec ID/Hint : MP3
    Duration : 1h 26mn
    Bit rate mode : Constant
    Bit rate : 160 Kbps
    Channel(s) : 2 channels
    Sampling rate : 44.1 KHz
    Resolution : 16 bits
    Video delay : 33ms
    Stream size : 98.9 MiB (12%)
    Alignment : Aligned on interleaves
    Interleave, duration : 26 ms (0.78 video frame)
    Interleave, preload duration : 809 ms
    Writing library : LAME3.97












    Bir Part Boyutu: 200 MB - Toplam Boyut: 857 MB

    [HIDE]
     
    Rapidshare
    http://rapidshare.com/files/384590881/CSHTR.geompac.Mothers.Little.Helpers.2010.WP.XviD-TA.part1.rar
    http://rapidshare.com/files/384604864/CSHTR.geompac.Mothers.Little.Helpers.2010.WP.XviD-TA.part2.rar
    http://rapidshare.com/files/384619161/CSHTR.geompac.Mothers.Little.Helpers.2010.WP.XviD-TA.part3.rar
    http://rapidshare.com/files/384632666/CSHTR.geompac.Mothers.Little.Helpers.2010.WP.XviD-TA.part4.rar
    http://rapidshare.com/files/384636318/CSHTR.geompac.Mothers.Little.Helpers.2010.WP.XviD-TA.part5.rar
    Enterupload
    http://www.enterupload.com/cnoakg2rdf1e/CSHTR.geompac.Mothers.Little.Helpers.2010.WP.XviD-TA.part1.rar
    http://www.enterupload.com/vsw2w5gs35t1/CSHTR.geompac.Mothers.Little.Helpers.2010.WP.XviD-TA.part2.rar
    http://www.enterupload.com/obokmvdmlq8a/CSHTR.geompac.Mothers.Little.Helpers.2010.WP.XviD-TA.part3.rar
    http://www.enterupload.com/sqi31x2kfd7f/CSHTR.geompac.Mothers.Little.Helpers.2010.WP.XviD-TA.part4.rar
    http://www.enterupload.com/81zbwyk7lusi/CSHTR.geompac.Mothers.Little.Helpers.2010.WP.XviD-TA.part5.rar
    Dll.bz
    http://dll.bz/file/2108/cshtr.geompac.mothers.little.helpers.2010.wp.xvid-ta.part1.rar.html
    http://dll.bz/file/2109/cshtr.geompac.mothers.little.helpers.2010.wp.xvid-ta.part2.rar.html
    http://dll.bz/file/2110/cshtr.geompac.mothers.little.helpers.2010.wp.xvid-ta.part3.rar.html
    http://dll.bz/file/2125/cshtr.geompac.mothers.little.helpers.2010.wp.xvid-ta.part4.rar.html
     http://dll.bz/file/2124/cshtr.geompac.mothers.little.helpers.2010.wp.xvid-ta.part5.rar.html
    [/HIDE]




    www.cshtr.com





  2. #2

    Standart

    teşekkürler

  3. #3

    Standart

    Hotfile olsa keşke

Benzer Konular

  1. Cevap: 49
    Son Mesaj : 18.Şubat.2013, 15:47
  2. Cevap: 13
    Son Mesaj : 02.Ocak.2013, 17:15
  3. Mickey's Handy Helpers | Kanal D | DVBrip | Türkçe Dublaj | 720x576
    Konu Sahibi MaGiCMeRT Forum Çalışmayan Linkler | Çöp Kutusu
    Cevap: 1
    Son Mesaj : 18.Nisan.2011, 17:58
  4. Marmaduke | R5 XviD NYDIC | 2010 | Rapid | Download | iNDiR
    Konu Sahibi geompac Forum R5 | DVDSCR | TS | CAM Orj
    Cevap: 7
    Son Mesaj : 25.Aralık.2010, 21:10
  5. Rann | DVDRip Xvid | Girl 101 | DVDRip Xvid | 2010 | Rapid | Download | iNDiR
    Konu Sahibi banzaimitoss Forum DVDRip | DVBRip DuaL-TR
    Cevap: 7
    Son Mesaj : 28.Temmuz.2010, 01:35