emlaklik & sedatyucel

Zombieland | 2009 | TS XviD | RS | Download | iNDiR

Zombieland TS XviD Language | Dublaj Dili : English Release Date | Gösterim Tarihi : 2009 Upload By ThierryH ( 07 Ekim 2009 ) Uploader Notu : Alt Yazı Çıkınca eklenecektir...

Bu konu 4399 kez görüntülendi ve 13 yorum aldı ...

    Konuyu değerlendir: Zombieland | 2009 | TS XviD | RS | Download | iNDiR

    5 üzerinden | Toplam: 0 kişi oyladı ve 4399 kez incelendi.


Sayfa 2 Toplam 2 Sayfadan BirinciBirinci 12
Toplam 14 adet sonuctan sayfa basi 11 ile 14 arasi kadar sonuc gösteriliyor
  1. #1

    Ts Zombieland | 2009 | TS XviD | RS | Download | iNDiR


    Zombieland

    TS XviD


    Language | Dublaj Dili : English
    Release Date | Gösterim Tarihi : 2009
    Upload By ThierryH ( 07 Ekim 2009 )

    Uploader Notu : Alt Yazı Çıkınca eklenecektir...







    Zombieland (2009)





    Alıntı

    Zombieland adını taşıyan filmde, tipik zombi filmlerinde olduğu gibi, zombilerin ele geçirdiği dünyada hayatta kalmaya çalışan küçük bir grup insanın hikayesi anlatılıyor. Yalnız bu sefer işin içinde bolca mizah var!

    9 Ekim'de Birleşik Devletler'de, 27 Kasım'da ise ülkemizde vizyona girecek filmin yönetmenliğini Ruben Fleischer üstleniyor.


    Alıntı
    Video
    ID : 0
    Format : MPEG-4 Visual
    Format profile : [email protected]
    Format settings, BVOP : Yes
    Format settings, QPel : No
    Format settings, GMC : No warppoints
    Format settings, Matrix : Default (H.263)
    Codec ID : XVID
    Codec ID/Hint : XviD
    Duration : 1h 22mn
    Bit rate : 2 205 Kbps
    Width : 688 pixels
    Height : 304 pixels
    Display aspect ratio : 2.25:1
    Frame rate : 23.976 fps
    Resolution : 24 bits
    Colorimetry : 4:2:0
    Scan type : Progressive
    Bits/(Pixel*Frame) : 0.440
    Stream size : 1.27 GiB (93%)
    Writing library : XviD 1.2.1 (UTC 2008-12-04)

    Audio
    ID : 1
    Format : MPEG Audio
    Format version : Version 1
    Format profile : Layer 3
    Codec ID : 55
    Codec ID/Hint : MP3
    Duration : 1h 22mn
    Bit rate mode : Constant
    Bit rate : 160 Kbps
    Channel(s) : 2 channels
    Sampling rate : 44.1 KHz
    Resolution : 16 bits
    Stream size : 94.5 MiB (7%)
    Alignment : Split accross interleaves
    Interleave, duration : 42 ms (1.00 video frame)
    Interleave, preload duration : 500 ms




















    Bir Part Boyutu: 200 MB - Toplam Boyut: 1.3 GB

    [HIDE]
     
    http://rapidshare.com/files/291959616/www.cshtr.com_Zombieland_ThierryH.part1.rar
    http://rapidshare.com/files/291959649/www.cshtr.com_Zombieland_ThierryH.part2.rar
    http://rapidshare.com/files/291959480/www.cshtr.com_Zombieland_ThierryH.part3.rar
    http://rapidshare.com/files/291959563/www.cshtr.com_Zombieland_ThierryH.part4.rar
    http://rapidshare.com/files/291959566/www.cshtr.com_Zombieland_ThierryH.part5.rar
    http://rapidshare.com/files/291959381/www.cshtr.com_Zombieland_ThierryH.part6.rar
    http://rapidshare.com/files/291959517/www.cshtr.com_Zombieland_ThierryH.part7.rar
    http://rapidshare.com/files/291957362/www.cshtr.com_Zombieland_ThierryH.part8.rar
    [/HIDE]





    www.cshtr.com





  2. #11

    Standart

    öncelikle teşekkür ederim paylaşım için kardeş ben görüntüyü begenemedim 1gb küsür olmasına ragmen bulanık gibi daha ii si var mıdır?

  3. #12

    Standart

    türkçe dublajmı ?acaba

  4. #13

    Standart

    cado321 Nickli Üyeden Alıntı
    türkçe dublajmı ?acaba
    Hayır değil İngilizce dublaj. Konunun üstünde açıklaması yazıyor..

  5. #14

    Standart

    teşekkürleeer

Benzer Konular

  1. Zombieland | DVDRiP | TR Adublaj | Rapidshare | 2009 | Download | iNDiR
    Konu Sahibi Eticon Forum DVDRip | DVBRip DuaL-TR
    Cevap: 11
    Son Mesaj : 13.Temmuz.2015, 00:37
  2. Cevap: 5
    Son Mesaj : 27.Aralık.2012, 02:36
  3. Zombieland l 2009 l Türkçe dublaj l Online Film izle l Direk izle
    Konu Sahibi BadBoy034 Forum Online Türkçe Filmler
    Cevap: 2
    Son Mesaj : 04.Şubat.2011, 14:46
  4. Cevap: 5
    Son Mesaj : 21.Ocak.2011, 10:45
  5. Cevap: 7
    Son Mesaj : 12.Ocak.2011, 16:08