Miss March | 2009 | BRrip | Ferol




IMDB: Miss March (2009)


Film,Playboy Malikanesi'ne yapılan yolculuğu anlatır. Eugene Pratt, sevgilisiyle balo günü tam birlikte olacakken düşmesi sonucu 4 yıl komada kalır. Uyandığında lise aşkının Playboy kapak kızı olduğunu öğrenir.

O ve arkadaşı Tucker Cleigh Playboy Malikanesi'ne, Eugene'nin hayallerinin kızına ulaşma yolunda türlü serüvenler atlatırlar.

Seksi ve eğlenceli bir film olan Miss March, vizyona girdiği ilk hafta Amerika Box Office'de onuncu sırada yerini aldı.



INFO



General


Format : AVI
Format/Info : Audio Video Interleave
File size : 1.36 GiB
Duration : 1h 33mn
Overall bit rate : 2 088 Kbps
Writing application : VirtualDubMod 1.6.0.0 SURROUND (build 2560/release)
Writing library : VirtualDubMod build 2560/release


Video

Format : MPEG-4 Visual
Format profile : Streaming [email protected]
Format settings, BVOP : Yes
Format settings, QPel : No
Format settings, GMC : No warppoints
Format settings, Matrix : Default
Muxing mode : Packed bitstream
Codec ID : XVID
Codec ID/Hint : XviD
Duration : 1h 33mn
Bit rate : 1 631 Kbps
Width : 720 pixels
Height : 384 pixels
Display aspect ratio : 1.875
Frame rate : 23.976 fps
Resolution : 24 bits
Colorimetry : 4:2:0
Scan type : Progressive
Bits/(Pixel*Frame) : 0.246
Stream size : 1.07 GiB (78%)
Writing library : XviD 50


Audio


Format : AC-3
Format/Info : Audio Coding 3
Codec ID : 2000
Duration : 1h 33mn
Bit rate mode : Constant
Bit rate : 448 Kbps
Channel(s) : 6 channels
Channel positions : Front: L C R, Surround: L R, LFE
Sampling rate : 48.0 KHz
Stream size : 300 MiB (21%)
Alignment : Split accross interleaves
Interleave, duration : 42 ms (1.00 video frame)
[/spoiler]

CAPS









DOWNLOAD


RapidShare

 
http://rapidshare.com/files/261151641/Miss.March.2009.UNRATED.BRRip.XviD.AC3-Ferol.part01.rar
http://rapidshare.com/files/261173759/Miss.March.2009.UNRATED.BRRip.XviD.AC3-Ferol.part02.rar
http://rapidshare.com/files/261192021/Miss.March.2009.UNRATED.BRRip.XviD.AC3-Ferol.part03.rar
http://rapidshare.com/files/261208743/Miss.March.2009.UNRATED.BRRip.XviD.AC3-Ferol.part04.rar
http://rapidshare.com/files/261224176/Miss.March.2009.UNRATED.BRRip.XviD.AC3-Ferol.part05.rar
http://rapidshare.com/files/261239404/Miss.March.2009.UNRATED.BRRip.XviD.AC3-Ferol.part06.rar
http://rapidshare.com/files/261255609/Miss.March.2009.UNRATED.BRRip.XviD.AC3-Ferol.part07.rar
http://rapidshare.com/files/261273877/Miss.March.2009.UNRATED.BRRip.XviD.AC3-Ferol.part08.rar
http://rapidshare.com/files/261294866/Miss.March.2009.UNRATED.BRRip.XviD.AC3-Ferol.part09.rar
http://rapidshare.com/files/261318118/Miss.March.2009.UNRATED.BRRip.XviD.AC3-Ferol.part10.rar
http://rapidshare.com/files/261346274/Miss.March.2009.UNRATED.BRRip.XviD.AC3-Ferol.part11.rar
http://rapidshare.com/files/261375057/Miss.March.2009.UNRATED.BRRip.XviD.AC3-Ferol.part12.rar
http://rapidshare.com/files/261403164/Miss.March.2009.UNRATED.BRRip.XviD.AC3-Ferol.part13.rar
http://rapidshare.com/files/261427298/Miss.March.2009.UNRATED.BRRip.XviD.AC3-Ferol.part14.rar



Altyazı için TIKLAYIN


İyi seyirler...