emlaklik & sedatyucel

TrollHunter (Trolljegeren) | 2010 | LiMiTED 360p BDRip | FS FSC | Download | iNDiR

TrollHunter (Trolljegeren) Troll Avı LiMiTED DUBBED 360p BDRip XviD - DASH Language | Dublaj Dili : English Release Date | Gösterim Tarihi : 2010 Uploaded By EmRebLs (18 Ağustos 2011 )

Bu konu 8592 kez görüntülendi ve 1 yorum aldı ...

    Konuyu değerlendir: TrollHunter (Trolljegeren) | 2010 | LiMiTED 360p BDRip | FS FSC | Download | iNDiR

    5 üzerinden | Toplam: 0 kişi oyladı ve 8592 kez incelendi.


Toplam 2 adet sonuctan sayfa basi 1 ile 2 arasi kadar sonuc gösteriliyor
  1. #1

    BDRip TrollHunter (Trolljegeren) | 2010 | LiMiTED 360p BDRip | FS FSC | Download | iNDiR

    TrollHunter
    (Trolljegeren)


    Troll Avı

    LiMiTED DUBBED 360p BDRip XviD - DASH

    Language | Dublaj Dili : English
    Release Date | Gösterim Tarihi : 2010
    Uploaded By EmRebLs (18 Ağustos 2011 )

    Bu paylaşımın toplam boyutu 703 MB olup, Fileserve Bitshare Filesonic Uploaded Wupload sunucularına upload edilmiştir.

    Altyazı Takip Linki : http://www.turkcealtyazi.org/mov/174...lljegeren.html







    http://www.imdb.com/title/tt1740707/



    Alıntı

    Yönetmen
    André Ovredal
    Senaryo
    André Ovredal

    Görüntü Yönetmeni
    Hallvard Bræin


    Oyuncu Rol
    Otto Jespersen Trolljegeren
    Hans Morten Hansen Finn
    Tomas Alf Larsen Kalle
    Johanna Mørck Johanna
    Knut Nærum E-verkssjef
    Robert Stoltenberg Polsk bjørnejeger
    Glenn Erland Tosterud Thomas
    The Troll Hunter Detaylar
    Türkçe Adı
    Troll Avı

    Gösterim Tarihi
    27 Mayıs 2011

    Yapım : 2010

    Ülke : Norveç

    Tür : Aksiyon, Macera, Dram

    Süre : 90 dakika
    Bilgi :Norveç'in Kuzey ormanlarında izinsiz olarak ayıları avlayan bir avcıdan şüphelenen üniversiteli bir grup, film projesi olarak bu konunun üstüne gitmek ister. Avcı onları, kendinden uzak tutmak isteyince grup da bir akşam gizlice avcının peşine düşer ve aslında peşinde oldukları şeyin bir ayı olmadığını fark ederler; dev bir Troll ile karşı karşıyadırlar...


     
    
    General
    Complete name                    : TrollHunter.2010.LiMiTED.DUBBED.360p.BDRip.XviD-DASH.vip.cshtr.com.avi
    Format                           : AVI
    Format/Info                      : Audio Video Interleave
    File size                        : 697 MiB
    Duration                         : 1h 43mn
    Overall bit rate                 : 942 Kbps
    Writing application              : VirtualDubMod 1.5.10.2 (build 2540/release)
    Writing library                  : VirtualDubMod build 2540/release
    
    Video
    Format                           : MPEG-4 Visual
    Format profile                   : Streaming [email protected]
    Format settings, BVOP            : No
    Format settings, QPel            : No
    Format settings, GMC             : No warppoints
    Format settings, Matrix          : Default
    Codec ID                         : XVID
    Codec ID/Hint                    : XviD
    Duration                         : 1h 43mn
    Bit rate                         : 801 Kbps
    Width                            : 576 pixels
    Height                           : 304 pixels
    Display aspect ratio             : 1.895
    Frame rate                       : 23.976 fps
    Resolution                       : 24 bits
    Colorimetry                      : 4:2:0
    Scan type                        : Progressive
    Bits/(Pixel Frame)               : 0.191
    Stream size                      : 593 MiB (85%)
    Writing library                  : XviD 1.2.1 (UTC 2008-12-04)
    
    Audio
    Format                           : MPEG Audio
    Format version                   : Version 1
    Format profile                   : Layer 3
    Codec ID                         : 55
    Codec ID/Hint                    : MP3
    Duration                         : 1h 43mn
    Bit rate mode                    : Variable
    Bit rate                         : 128 Kbps
    Channel(s)                       : 2 channels
    Sampling rate                    : 48.0 KHz
    Resolution                       : 16 bits
    Stream size                      : 94.6 MiB (14%)
    Alignment                        : Aligned on interleaves
    Interleave, duration             : 24 ms (0.58 video frame)
    Interleave, preload duration     : 144 ms
    Writing library                  : LAME3.90.
    Encoding settings                : ABR
    











    Bir Part Boyutu: 205 MB - Toplam Boyut: 703 MB





    [HIDE]
     
    http://www.fileserve.com/file/qwDjMTX/CSHTR.18811.F.EmRebLs.CnvrAvcisi.2011.3.CSHTR.com.part1.rar
    http://www.fileserve.com/file/9Rj5c5u/CSHTR.18811.F.EmRebLs.CnvrAvcisi.2011.3.CSHTR.com.part2.rar
    http://www.fileserve.com/file/5kNaNAA/CSHTR.18811.F.EmRebLs.CnvrAvcisi.2011.3.CSHTR.com.part3.rar
    http://www.fileserve.com/file/EvKFt4w/CSHTR.18811.F.EmRebLs.CnvrAvcisi.2011.3.CSHTR.com.part4.rar
    [/HIDE]



    [HIDE]
     
    http://bitshare.com/files/x912zmk9/CSHTR.18811.F.EmRebLs.CnvrAvcisi.2011.3.CSHTR.com.part1.rar.html
    http://bitshare.com/files/hqjtdwcw/CSHTR.18811.F.EmRebLs.CnvrAvcisi.2011.3.CSHTR.com.part2.rar.html
    http://bitshare.com/files/zuo1oic8/CSHTR.18811.F.EmRebLs.CnvrAvcisi.2011.3.CSHTR.com.part3.rar.html
    http://bitshare.com/files/p5h3fw5w/CSHTR.18811.F.EmRebLs.CnvrAvcisi.2011.3.CSHTR.com.part4.rar.html
    [/HIDE]



    [HIDE]
     
    http://www.filesonic.com/file/1697308444/CSHTR.18811.F.EmRebLs.CnvrAvcisi.2011.3.CSHTR.com.part1.rar
    http://www.filesonic.com/file/1697308454/CSHTR.18811.F.EmRebLs.CnvrAvcisi.2011.3.CSHTR.com.part2.rar
    http://www.filesonic.com/file/1697384124/CSHTR.18811.F.EmRebLs.CnvrAvcisi.2011.3.CSHTR.com.part3.rar
    http://www.filesonic.com/file/1697304644/CSHTR.18811.F.EmRebLs.CnvrAvcisi.2011.3.CSHTR.com.part4.rar
    [/HIDE]



    [HIDE]
     
    http://ul.to/p0zw1paq/CSHTR.18811.F.EmRebLs.CnvrAvcisi.2011.3.CSHTR.com.part1.rar
    http://ul.to/1fgdqwmk/CSHTR.18811.F.EmRebLs.CnvrAvcisi.2011.3.CSHTR.com.part2.rar
    http://ul.to/8dg0wgsl/CSHTR.18811.F.EmRebLs.CnvrAvcisi.2011.3.CSHTR.com.part3.rar
    http://ul.to/00wcfypg/CSHTR.18811.F.EmRebLs.CnvrAvcisi.2011.3.CSHTR.com.part4.rar
    [/HIDE]



    [HIDE]
     
    http://www.wupload.com/file/116759402/CSHTR.18811.F.EmRebLs.CnvrAvcisi.2011.3.CSHTR.com.part1.rar
    http://www.wupload.com/file/116759403/CSHTR.18811.F.EmRebLs.CnvrAvcisi.2011.3.CSHTR.com.part2.rar
    http://www.wupload.com/file/116759404/CSHTR.18811.F.EmRebLs.CnvrAvcisi.2011.3.CSHTR.com.part3.rar
    http://www.wupload.com/file/116759405/CSHTR.18811.F.EmRebLs.CnvrAvcisi.2011.3.CSHTR.com.part4.rar
    [/HIDE]







    www.cshtr.com



  2. #2

    Bölüm Yöneticisi

    Standart

    Yeniden upload edilmek üzere Reup bölümüne taşınmıştır... Bilginize...