emlaklik & sedatyucel

Wild Target | 2010 | DVDRip | Hotfile | Download | iNDiR

Wild Target DVDRip XviD Language | Dublaj Dili : English Release Date | Gösterim Tarihi : 2010 Upload By MetaLyuM ( 12 Ağustos 2010 ) Uploader Notu : İyi Seyirler....

Bu konu 5006 kez görüntülendi ve 27 yorum aldı ...

    Konuyu değerlendir: Wild Target | 2010 | DVDRip | Hotfile | Download | iNDiR

    5 üzerinden | Toplam: 0 kişi oyladı ve 5006 kez incelendi.


Sayfa 2 Toplam 3 Sayfadan BirinciBirinci 123 SonuncuSonuncu
Toplam 28 adet sonuctan sayfa basi 11 ile 20 arasi kadar sonuc gösteriliyor
  1. #1

    Dvdrip Wild Target | 2010 | DVDRip | Hotfile | Download | iNDiR


    Wild Target

    DVDRip XviD

    Language | Dublaj Dili : English
    Release Date | Gösterim Tarihi : 2010
    Upload By MetaLyuM ( 12 Ağustos 2010 )

    Uploader Notu : İyi Seyirler....







    http://www.imdb.com/title/tt1235189/





    Alıntı
    Format : AVI
    Format/Info : Audio Video Interleave
    File size : 700 MiB
    Duration : 1h 33mn
    Overall bit rate : 1 041 Kbps
    Writing application : VirtualDubMod 1.5.10.2 (build 2540/release)
    Writing library : VirtualDubMod build 2540/release

    Video
    ID : 0
    Format : MPEG-4 Visual
    Format profile : Advanced [email protected]
    Format settings, BVOP : Yes
    Format settings, QPel : No
    Format settings, GMC : No warppoints
    Format settings, Matrix : Default (MPEG)
    Codec ID : XVID
    Codec ID/Hint : XviD
    Duration : 1h 33mn
    Bit rate : 905 Kbps
    Width : 640 pixels
    Height : 272 pixels
    Display aspect ratio : 2.35:1
    Frame rate : 25.000 fps
    Color space : YUV
    Chroma subsampling : 4:2:0
    Bit depth : 8 bits
    Scan type : Progressive
    Bits/(Pixel*Frame) : 0.208
    Stream size : 608 MiB (87%)
    Writing library : XviD 1.2.1 (UTC 2008-12-04)

    Audio
    ID : 1
    Format : MPEG Audio
    Format version : Version 1
    Format profile : Layer 3
    Mode : Joint stereo
    Mode extension : MS Stereo
    Codec ID : 55
    Codec ID/Hint : MP3
    Duration : 1h 33mn
    Bit rate mode : Variable
    Bit rate : 128 Kbps
    Channel(s) : 2 channels
    Sampling rate : 48.0 KHz
    Stream size : 83.2 MiB (12%)
    Alignment : Aligned on interleaves
    Interleave, duration : 24 ms (0.60 video frame)
    Interleave, preload duration : 542 ms
    Writing library : LAME3.90.
    Encoding settings : -m j -V 4 -q 2 -lowpass 17.6 --abr 128













    Bir Part Boyutu: 199 MB - Toplam Boyut: 700 MB

    [HIDE]
     
    Hotfile
    http://hotfile.com/dl/68305943/6b77f69/WildTarget.2010.DVDRip.vip.cshtr.coml.part1.rar.html
    http://hotfile.com/dl/68306107/1452fa5/WildTarget.2010.DVDRip.vip.cshtr.coml.part2.rar.html
    http://hotfile.com/dl/68306537/83054a6/WildTarget.2010.DVDRip.vip.cshtr.coml.part3.rar.html
    http://hotfile.com/dl/68306619/b14bd80/WildTarget.2010.DVDRip.vip.cshtr.coml.part4.rar.html
    Netload
    http://www.netload.in/dateiBMQLGuYV28/WildTarget.2010.DVDRip.vip.cshtr.coml.part1.rar.htm
    http://www.netload.in/datei1fcW1a7Tao/WildTarget.2010.DVDRip.vip.cshtr.coml.part2.rar.htm
    http://www.netload.in/dateirhGSsyokAh/WildTarget.2010.DVDRip.vip.cshtr.coml.part3.rar.htm
    http://www.netload.in/dateikQGKDeCSpJ/WildTarget.2010.DVDRip.vip.cshtr.coml.part4.rar.htm
    Linkler uyumludur...
    [/HIDE]





    www.cshtr.com





  2. #11

    Standart

    türkçe değil bende indirdim

  3. #12

    Standart

    teşekkürler

  4. #13

    Standart

    Film Türkçe Değil. İndirmeyin boşuna

  5. #14

    Standart

    Paylaşım için Teşekkürler
    Edit- Türkçe degilmiş

  6. #15

    Standart

    teşekkür butonu çalışsa basıcaktım

  7. #16

    Standart

    yahu yazdığım mesajı silmeyi biliyorsunuz ilk mesajmış yapıcı olucakmış mış mışım. bırakın.
    türkçe dublaj bölümündeki dublajı olmayan bu filmi kaldırın lütfen insanlar yanılıp indiriyor hayla neyi bekliyorsunuz.

  8. #17

    Standart

    Malesef bir hata yapılmış.Filmin yeri başka bir başlık altında olmalı.Türkçe dublaj yok.

  9. #18

    Standart

    Film dual değil ki ikinci ses olsun ?
    >>> Language | Dublaj Dili : İngilizce

    Bence konu başlığı sehven yanlış yazılmış...


  10. #19

    Standart

    yahu o kadar ıstedım bu fılmı izlemeyi. indirdim türkçe cıkmadı kendime mi kızsam acaba

  11. #20

    Standart

    bu sitenin de suyu çıktı artık.
    hayla silemediniz şu başlığı yada düzeltemediniz hatanızı.

Benzer Konular

  1. Wild Target | 2009 | DVDRip | Download | iNDiR
    Konu Sahibi Mysterio Forum DVDRip | DVBRip Orj
    Cevap: 7
    Son Mesaj : 20.Şubat.2013, 23:30
  2. Cevap: 1
    Son Mesaj : 25.Aralık.2012, 21:53
  3. Human Target | 1. Sezon | 2010 | HDTV | HF FS NL | Download | iNDiR
    Konu Sahibi Eticon Forum Güncel Yabancı Diziler
    Cevap: 3
    Son Mesaj : 21.Temmuz.2011, 08:19
  4. SEVGiLi HEDEFiM | WILD TARGET | Vizyondaki Filmlerin Tanıtımları | 08.10.2010
    Konu Sahibi geompac Forum SineKafe | Film Dizi Sohbet | Afiş Fragman
    Cevap: 0
    Son Mesaj : 04.Ekim.2010, 19:03
  5. Cevap: 0
    Son Mesaj : 14.Nisan.2010, 14:15