emlaklik & sedatyucel

Le petit Nicolas | Little Nicholas | DvDRip | 2009 | 2 Alternatif | Download | iNDiR

Le petit Nicolas Little Nicholas Pıtırcık DvDRiP Language | Dublaj Dili : French Release Date | Gösterim Tarihi : 2009 Subtitle | Altyazı : Türkçe (Dahili Altyazı)

Bu konu 2098 kez görüntülendi ve 8 yorum aldı ...

    Konuyu değerlendir: Le petit Nicolas | Little Nicholas | DvDRip | 2009 | 2 Alternatif | Download | iNDiR

    5 üzerinden | Toplam: 0 kişi oyladı ve 2098 kez incelendi.


Toplam 9 adet sonuctan sayfa basi 1 ile 9 arasi kadar sonuc gösteriliyor
  1. #1

    Dvdrip Le petit Nicolas | Little Nicholas | DvDRip | 2009 | 2 Alternatif | Download | iNDiR


    Le petit Nicolas
    Little Nicholas


    Pıtırcık

    DvDRiP

    Language | Dublaj Dili : French
    Release Date | Gösterim Tarihi : 2009
    Subtitle | Altyazı : Türkçe (Dahili Altyazı)
    Upload By RuhY ( 16 Mayıs 2010 )

    Uploader Notu : Eğlenceli, haylaz ama bir o kadar da sevimli çocukların bir araya geldiği bir okul-aile komedisi. Aaa bunlar benim ilkokul arkadaşlarım diyebilirsiniz(Kendimden Çaldım)
    Yoğun istek olmadı ama
    İZlemelisiniz diyorum; oyuncular muhteşem
    İyi Seyirler Efendim








    http://www.imdb.com/title/tt1264904/





    Laurent Tirard’ın yönettiği ve Maxime Godart, Valérie Lemercier, Kad Merad ile Sandrine Kiberlain’in oynadığı Pıtırcık (Le Petit Nicolas - Little Nicholas), 15 Ocak 2010’da Tiglon Film dağıtımıyla Filma Ltd. tarafından vizyona çıkarılmıştır.

    İlk olarak 1959 yılında yayımlanan ve René Goscinny tarafından yaratılan eser gerçek anlamda ilk defa sinemaya uyarlanmıştır. Küçüklüğümüzün vazgeçilmez kitaplarından olan bu yapıtı, Laurent Tirard yönetmenliğinde, izleyebileceğiz.

    Nicholas(Pıtırcık) hayatından memnundur: Onu seven bir ailesi, muhteşem arkadaşları vardır ve her şeyin böyle devam etmesini istemektedir.

    Ancak birgün her şey değişir: Anne ve babasını konuşurken duyan Nicholas, konuşmalardan yeni bir kardeşi olacağı anlamını çıkarır ve paniğe kapılır. Herkes yeni gelen bebeği daha çok sevecek ve artık ailesinin onunla ilgilenmeye zamanı kalmayacaktır. Hatta Parmak Çocuk masalında olduğu gibi onu ormana bırakıp gideceklerdir. Nicholas ailesinin kendisinden vazgeçmemesi için çeşitli taktikler uygulamaya başlar ama bu taktikler pek istediği gibi işlemez ve sonuçta ailesini kızdırır.

    Nicholas ve arkadaşları B planına geçerler: Nicholas önce geldiğine göre o kalacaktır ama bebekten kurtulmaları gerekir. Bu işi halletmek için önce paraya ihtiyaçları vardır, sonra ise… Tam bu planı uygulamaya koyduklarında Tıngır, bir kardeşe sahip olmanın ve ağabey olmanın aslında faydaları olduğunu anlatır. Bunun duyan Nicholas, ağlayarak eve gider ve bir kardeşi olursa çok mutlu olacağını ailesine pişmanlıkla anlatır. Ailesi bu duruma şasırır çünkü bir yanlış anlama olmuştur.
    Ama Nicholas’ı bekleyen başka bir sürpriz vardır.
    Yönetmen: Laurent Tirard
    Tür: Comedy,Family
    Ülke: France
    Dil: French
    Puan: 6.4/10 (200 oy)
    Süre: 91 min



    Format : AVI
    Format/Info : Audio Video Interleave
    File size : 700 MiB
    Duration : 1h 27mn
    Overall bit rate : 1 115 Kbps
    Writing application : Nandub v1.0rc2
    Writing library : Nandub build 1853/release
    Video
    Format : MPEG-4 Visual
    Format settings, Matrix : Default (H.263)
    Codec ID/Hint : XviD
    Duration : 1h 27mn
    Bit rate : 971 Kbps
    Width : 576 pixels
    Height : 304 pixels
    Display aspect ratio : 1.895
    Frame rate : 25.000 fps
    Resolution : 8 bits
    Colorimetry : 4:2:0
    Bits/(Pixel*Frame) : 0.222
    Stream size : 610 MiB (87%)
    Writing library : XviD 1.2.1 (UTC 2008-12-04)
    Audio
    Format : MPEG Audio
    Format version : Version 1
    Format profile : Layer 3
    Codec ID : 55
    Codec ID/Hint : MP3
    Duration : 1h 27mn
    Bit rate : 130 Kbps
    Nominal bit rate : 128 Kbps
    Channel(s) : 2 channels
    Sampling rate : 48.0 KHz
    Stream size : 81.9 MiB (12%)
    Interleave, duration : 24 ms (0.60 video frame)
    Interleave, preload duration : 135 ms
    Writing library : LAME3.90.
    Encoding settings : -m j -V 4 -q 2 -lowpass 17.6 --abr 128








































    Bir Part Boyutu: 200 MB - Toplam Boyut: 700 MB

    [HIDE]
     
    RapidShare
    http://rapidshare.com/files/387786360/Le.Petit.Nicolas.DVDRiP.2009.www.cshtr.com.RuhY.part1.rar
    http://rapidshare.com/files/387816308/Le.Petit.Nicolas.DVDRiP.2009.www.cshtr.com.RuhY.part2.rar
    http://rapidshare.com/files/387733742/Le.Petit.Nicolas.DVDRiP.2009.www.cshtr.com.RuhY.part3.rar
    http://rapidshare.com/files/387769297/Le.Petit.Nicolas.DVDRiP.2009.www.cshtr.com.RuhY.part4.rar
    
    HotFile
    http://hotfile.com/dl/43143883/cda8491/Le.Petit.Nicolas.DVDRiP.2009.www.cshtr.com.RuhY.part1.rar
    http://hotfile.com/dl/43144168/ccdc0fe/Le.Petit.Nicolas.DVDRiP.2009.www.cshtr.com.RuhY.part2.rar
    http://hotfile.com/dl/43144506/32a9240/Le.Petit.Nicolas.DVDRiP.2009.www.cshtr.com.RuhY.part3.rar
    http://hotfile.com/dl/43144696/39e04bb/Le.Petit.Nicolas.DVDRiP.2009.www.cshtr.com.RuhY.part4.rar
    [/HIDE]





    www.cshtr.com




    absahun, MetaLyuM, HeFFeR ve 3 kişi daha bunu beğendi.

  2. #2

    Standart

    teşekkürler

  3. #3

    Standart

    Ellerine Sağlık S.modum

  4. #4

    Standart

    HeFFeR Nickli Üyeden Alıntı
    Ellerine Sağlık S.modum
    Seninde Co aDMiN'im..Yalnız S.mod tarih oldu
    KRaLiÇe MoDeRaTöR artık Acayip güzel bir rütbe

    Telaffuzu bile başka güzel
    KRaLiÇe
    hey!

  5. #5

    Standart

    ölü linkler

  6. #6

    Standart

    linkler ölmüş

  7. #7

    Standart

    yönetim tarafından açılmadığı için konu sahibine bilgilendirmede bulundum oradan gelecek yanıta göre konunun akıbeti belli olucak..

  8. #8

    Standart

    reup/film bölümüne taşınmıştır

  9. #9

    Standart

    teşekkürler

Benzer Konular

  1. Cevap: 59
    Son Mesaj : 07.Şubat.2016, 00:39
  2. Cevap: 2
    Son Mesaj : 27.Aralık.2012, 02:03
  3. Cevap: 65
    Son Mesaj : 23.Ocak.2011, 15:45
  4. Little Nicholas | DuaL BDRip XviD | 2009 | Rapid | Hotfile | Download | iNDiR
    Konu Sahibi absahun Forum DVDRip | DVBRip DuaL-TR
    Cevap: 0
    Son Mesaj : 17.Mayıs.2010, 12:22
  5. LE PETIT NICOLAS | Little Nicholas | PITIRCIK | Film Tanıtım | Fragman | 2009
    Konu Sahibi RuhY Forum SineKafe | Film Dizi Sohbet | Afiş Fragman
    Cevap: 1
    Son Mesaj : 16.Mayıs.2010, 16:40