emlaklik & sedatyucel

Turist Ömer | TVRip | 1964 | Rapid | Download | iNDiR

Turist Ömer TVRip Language | Dublaj Dili : Türkçe Release Date | Gösterim Tarihi : 1964 Upload By abugras ( 13 Ocak 2010 ) Uploader Notu : İyi Seyirler

Bu konu 4791 kez görüntülendi ve 10 yorum aldı ...

    Konuyu değerlendir: Turist Ömer | TVRip | 1964 | Rapid | Download | iNDiR

    5 üzerinden | Toplam: 0 kişi oyladı ve 4791 kez incelendi.


Sayfa 2 Toplam 2 Sayfadan BirinciBirinci 12
Toplam 11 adet sonuctan sayfa basi 11 ile 11 arasi kadar sonuc gösteriliyor
  1. #1

    Tvrip Turist Ömer | TVRip | 1964 | Rapid | Download | iNDiR


    Turist Ömer

    TVRip

    Language | Dublaj Dili : Türkçe
    Release Date | Gösterim Tarihi : 1964
    Upload By abugras ( 13 Ocak 2010 )

    Uploader Notu : İyi Seyirler







    http://www.imdb.com/title/tt0405410/





    Alıntı

    Tür : Komedi
    Yönetmen : Hulki Saner
    Senaryo : Hulki Saner
    Görüntü Yönetmeni : Kriton İlyadis
    Müzik : Metin Bükey
    Yapım : 1964, Türkiye

    Oyuncular

    Sadri Alışık (Turist Ömer) , Benan Öz , Zuhal Tan , Çolpan İlhan , Mualla Sürer , Vahi Öz , Gülbin Eray , Nurlan San , Eşref Vural , Mehmet Ali Akpınar



    Alıntı
    General
    Complete name : Turist Ömer.avi
    Format : AVI
    Format/Info : Audio Video Interleave
    File size : 739 MiB
    Duration : 1h 32mn
    Overall bit rate : 1 115 Kbps

    Video
    ID : 0
    Format : MPEG-4 Visual
    Format settings, BVOP : Yes
    Format settings, QPel : No
    Format settings, GMC : No warppoints
    Format settings, Matrix : Default (H.263)
    Muxing mode : Packed bitstream
    Codec ID : DX50
    Codec ID/Hint : DivX 5
    Duration : 1h 32mn
    Bit rate : 977 Kbps
    Width : 640 pixels
    Height : 480 pixels
    Display aspect ratio : 4:3
    Frame rate : 25.000 fps
    Resolution : 24 bits
    Scan type : Progressive
    Bits/(Pixel*Frame) : 0.127
    Stream size : 648 MiB (88%)
    Writing library : DivX 5.0.5 Beta(Tahanea) (UTC 2003-01)

    Audio
    ID : 1
    Format : MPEG Audio
    Format version : Version 1
    Format profile : Layer 3
    Codec ID : 55
    Codec ID/Hint : MP3
    Duration : 1h 32mn
    Bit rate mode : Constant
    Bit rate : 128 Kbps
    Channel(s) : 2 channels
    Sampling rate : 44.1 KHz
    Resolution : 16 bits
    Video delay : 13ms
    Stream size : 84.8 MiB (11%)
    Alignment : Split accross interleaves
    Interleave, duration : 40 ms (1.00 video frame)
    Interleave, preload duration : 500 ms











    Bir Part Boyutu: 200 MB - Toplam Boyut: 732 MB

    [HIDE]
     
    http://rapidshare.com/files/334418742/www.cshtr.com_trstomer_abugras.part1.rar
    http://rapidshare.com/files/334432899/www.cshtr.com_trstomer_abugras.part2.rar
    http://rapidshare.com/files/334448803/www.cshtr.com_trstomer_abugras.part3.rar
    http://rapidshare.com/files/334456655/www.cshtr.com_trstomer_abugras.part4.rar
    [/HIDE]





    www.cshtr.com





  2. #11

    Standart

    konu kilit reup

Benzer Konular

  1. Cevap: 11
    Son Mesaj : 28.Aralık.2012, 04:07
  2. Turist Ömer Arabistan'da | TVRip | 1969 | Rapid | Download | iNDiR
    Konu Sahibi absahun Forum DVDRip | DVBRip | TVRip
    Cevap: 8
    Son Mesaj : 30.Nisan.2012, 01:26
  3. Turist Ömer Uzay Yolunda | VCDRip | 1973 | Rapid | Download | iNDiR
    Konu Sahibi absahun Forum VCD | VCDRip | DVDSCR | TS
    Cevap: 18
    Son Mesaj : 07.Kasım.2011, 12:16
  4. Turist Ömer Boğa Güreşçisi | VCDRip | 1971 | Rapid | Download | iNDiR
    Konu Sahibi absahun Forum VCD | VCDRip | DVDSCR | TS
    Cevap: 9
    Son Mesaj : 05.Kasım.2011, 15:59
  5. Turist Ömer Yamyamlar Arasında | TVRip | 1970 | Rapid | Download | iNDiR
    Konu Sahibi absahun Forum DVDRip | DVBRip | TVRip
    Cevap: 7
    Son Mesaj : 10.Ocak.2011, 23:24