emlaklik & sedatyucel

The Name of the Rose | 1986 | DVDrip Xvid | TR Altyazılı | Rapid | Download | iNDiR

The Name of the Rose DVDrip Xvid Language | Dublaj Dili : English Subtitle | Altyazı : Türkçe (Harici Altyazı) Upload By geompac ( 23 Aralık 2009 ) Uploader Notu : Altyazı Dosyanın içindedir (Afis)

Bu konu 2386 kez görüntülendi ve 6 yorum aldı ...

    Konuyu değerlendir: The Name of the Rose | 1986 | DVDrip Xvid | TR Altyazılı | Rapid | Download | iNDiR

    5 üzerinden 5.00 | Toplam: 1 kişi oyladı ve 2386 kez incelendi.


Toplam 7 adet sonuctan sayfa basi 1 ile 7 arasi kadar sonuc gösteriliyor
  1. #1

    Genel Yönetici

    Dvdrip The Name of the Rose | 1986 | DVDrip Xvid | TR Altyazılı | Rapid | Download | iNDiR


    The Name of the Rose DVDrip Xvid

    Language | Dublaj Dili : English
    Subtitle | Altyazı : Türkçe (Harici Altyazı)
    Upload By geompac ( 23 Aralık 2009 )

    Uploader Notu : Altyazı Dosyanın içindedir







    Der Name der Rose (1986)





    Alıntı
    Format : AVI
    Format/Info : Audio Video Interleave
    File size : 699 MB
    Duration : 2h 3mn
    Overall bit rate : 794 Kbps
    Writing application : VirtualDubMod 1.5.4.1 (build 2178/release)
    Writing library : VirtualDubMod build 2178/release

    Video
    Format : MPEG-4 Visual
    Format profile : Streaming [email protected]
    Format settings, BVOP : Yes
    Format settings, QPel : No
    Format settings, GMC : No warppoints
    Format settings, Matrix : Default
    Muxing mode : Packed bitstream
    Codec ID : XVID
    Codec ID/Hint : XviD
    Duration : 2h 3mn
    Bit rate : 668 Kbps
    Width : 592 pixels
    Height : 336 pixels
    Display aspect ratio : 16/9
    Frame rate : 25.000 fps
    Resolution : 24 bits
    Colorimetry : 4:2:0
    Scan type : Progressive
    Bits/(Pixel*Frame) : 0.134
    Stream size : 588 MiB (84%)
    Writing library : XviD 1.1.0 (UTC 2005-11-22)

    Audio
    Format : MPEG Audio
    Format version : Version 1
    Format profile : Layer 3
    Codec ID : 55
    Codec ID/Hint : MP3
    Duration : 2h 3mn
    Bit rate mode : Variable
    Bit rate : 114 Kbps
    Minimum bit rate : 128 Kbps
    Channel(s) : 2 channels
    Sampling rate : 48.0 KHz
    Resolution : 16 bits
    Stream size : 100 MiB (14%)
    Alignment : Aligned on interleaves
    Interleave, duration : 24 ms (0.60 video frame)
    Interleave, preload duration : 162 ms
    Writing library : LAME3.97b
    Encoding settings : ABR
    Language : English




    Bir Part Boyutu: 198 MB - Toplam Boyut: 699 MB

    [HIDE]
     
    http://rapidshare.com/files/324591982/www.cshtr.com.geompac.TNTR.devederip.part1.rar
    http://rapidshare.com/files/324591426/www.cshtr.com.geompac.TNTR.devederip.part2.rar
    http://rapidshare.com/files/324591888/www.cshtr.com.geompac.TNTR.devederip.part3.rar
    http://rapidshare.com/files/324572215/www.cshtr.com.geompac.TNTR.devederip.part4.rar
    [/HIDE]





    www.cshtr.com





  2. #2

    Standart

    film için teşekkürler

  3. #3

    Standart

    Cok güzel bir film

    Tesekkürler

  4. #4

    Standart

    paylaşım için teşekkürler...

  5. #5

    Standart

    elinize sağlık

    -- CSHTR ; Flood Engellendi -->-> Yeni yazılan mesaj 06:12 -->-> Daha önceki mesaj 06:07 --

    link ölmüş

  6. #6

    Standart

    yeni link please!!!!!!!!!

  7. #7

    Standart

    konu reuploadtadır yeniden yüklenmeyi bekliyor. keyifli forumlar..

Benzer Konular

  1. Cevap: 14
    Son Mesaj : 31.Aralık.2011, 00:15
  2. Transformers - The Movie | 1986 | DVDRip FRAGMENT | FS NL FSC | Download | iNDiR
    Konu Sahibi Staf. Auris Forum Orijinal Dil Çizgi ve Animasyon Filmler
    Cevap: 33
    Son Mesaj : 14.Aralık.2011, 18:01
  3. Cat City | Macskafogó | DVDRip XViD iCiCLE | 1986 | Rapid | Download | iNDiR
    Konu Sahibi CaSh Forum Orijinal Dil Çizgi ve Animasyon Filmler
    Cevap: 12
    Son Mesaj : 28.Nisan.2010, 13:21
  4. Top Gun | TR | DVDRip XviD | 1986 | Rapid | Hotfile | Download | iNDiR
    Konu Sahibi absahun Forum DVDRip | DVBRip DuaL-TR
    Cevap: 2
    Son Mesaj : 28.Mart.2010, 00:22
  5. Platoon | DVDRip Xvid | 1986 | Rapid Download | İNdir
    Konu Sahibi BeBeGiM Forum Çalışmayan Linkler | Çöp Kutusu
    Cevap: 13
    Son Mesaj : 27.Kasım.2008, 15:44