emlaklik & sedatyucel

Glengarry Glen Ross | Amerikalılar | DVDRip | 1992 | Rapid | Download | iNDiR

Glengarry Glen Ross Amerikalılar DVDRip Language | Dublaj Dili : English Release Date | Gösterim Tarihi : 1992 Subtitle | Altyazı : Türkçe (Harici Altyazı) Upload By Ramone ( 19 Eylül 2009 )

Bu konu 3906 kez görüntülendi ve 5 yorum aldı ...

    Konuyu değerlendir: Glengarry Glen Ross | Amerikalılar | DVDRip | 1992 | Rapid | Download | iNDiR

    5 üzerinden | Toplam: 0 kişi oyladı ve 3906 kez incelendi.


Toplam 6 adet sonuctan sayfa basi 1 ile 6 arasi kadar sonuc gösteriliyor
  1. #1

    Dvdrip Glengarry Glen Ross | Amerikalılar | DVDRip | 1992 | Rapid | Download | iNDiR


    Glengarry Glen Ross

    Amerikalılar

    DVDRip

    Language | Dublaj Dili : English
    Release Date | Gösterim Tarihi : 1992
    Subtitle | Altyazı : Türkçe (Harici Altyazı)
    Upload By Ramone ( 19 Eylül 2009 )

    Uploader Notu : Türkçe altyazı rarların içindedir







    Glengarry Glen Ross (1992)





    Alıntı

    Tür: Drama

    Yönetmen: James Foley

    Senaryo: David Mamet

    Oyuncular: Al Pacino, Jack Lemmon, Alec Baldwin, Alan Arkin, Ed Harris, Kevin Spacey

    Konu:

    Ünlü oyun ve senaryo yazarı David Mamet'ın bir eserinden uyarlanan filmin tamamı 2 gün içerisinde geçiyor. Bir grup emlak pazarlamacısı bağlı oldukları şirket tarafından eğer adamakıllı birer satış yapmazlarsa kovulacaklarını anlıyorlar. Bu bir grup emlak satıcısının o akşam yaşadığı çelişkiler ve ayakta kalabilmek için verdikleri haybeye mücadele içlerinden bazılarını çalıştıkları büroyu soymaya bile itecektir. Özellikle yıldız oyuncu kadrosuyla dikkat çeken film başarılı bir tiyatro uyarlaması olarak biliniyor…


    Alıntı
    Glengarry Glen Ross (1992).avi

    General
    Complete name : Glengarry Glen Ross (1992).avi
    Format : AVI
    Format/Info : Audio Video Interleave
    File size : 648 MiB
    Duration : 1h 40mn
    Overall bit rate : 903 Kbps
    Writing application : MEncoder dev-SVN-rUNKNOWN-4.2.1
    Writing library : MPlayer

    Video
    Format : MPEG-4 Visual
    Format profile : Streaming [email protected]
    Format settings, BVOP : Yes
    Format settings, QPel : No
    Format settings, GMC : No warppoints
    Format settings, Matrix : Default
    Codec ID : XVID
    Codec ID/Hint : XviD
    Duration : 1h 40mn
    Bit rate : 762 Kbps
    Width : 720 pixels
    Height : 336 pixels
    Display aspect ratio : 2.35
    Frame rate : 23.976 fps
    Resolution : 24 bits
    Colorimetry : 4:2:0
    Scan type : Progressive
    Bits/(Pixel*Frame) : 0.131
    Stream size : 547 MiB (84%)
    Writing library : XviD 1.2.0.dev47 (UTC 2006-11-01)

    Audio
    Format : MPEG Audio
    Format version : Version 1
    Format profile : Layer 3
    Codec ID : 55
    Codec ID/Hint : MP3
    Duration : 1h 40mn
    Bit rate mode : Constant
    Bit rate : 128 Kbps
    Channel(s) : 2 channels
    Sampling rate : 48.0 KHz
    Resolution : 16 bits
    Stream size : 91.9 MiB (14%)
    Alignment : Aligned on interleaves
    Interleave, duration : 24 ms (0.58 video frame)
    Interleave, preload duration : 504 ms
    Writing library : LAME3.97




















    Bir Part Boyutu: 100 MB - Toplam Boyut: 642 MB

    [HIDE]
     
    http://rapidshare.com/files/275453115/www.cshtr.com._.GlngGlnRss_1992._.Ramone.part1.rar
    http://rapidshare.com/files/275476534/www.cshtr.com._.GlngGlnRss_1992._.Ramone.part2.rar
    http://rapidshare.com/files/275542227/www.cshtr.com._.GlngGlnRss_1992._.Ramone.part3.rar
    http://rapidshare.com/files/275508229/www.cshtr.com._.GlngGlnRss_1992._.Ramone.part4.rar
    http://rapidshare.com/files/275532907/www.cshtr.com._.GlngGlnRss_1992._.Ramone.part5.rar
    http://rapidshare.com/files/275587243/www.cshtr.com._.GlngGlnRss_1992._.Ramone.part6.rar
    http://rapidshare.com/files/281106907/www.cshtr.com._.GlngGlnRss_1992._.Ramone.part7.rar
    [/HIDE]





    www.cshtr.com




    BuGi, Black, sinyorcarlo ve 9 kişi daha bunu beğendi.

  2. #2

    Standart

    Mükemmel bir film, sinema sanatından hoşlananlar mutlaka izlesinler, sinemadan boşlanalar ise arkalarına bakmadan kaçsınlar.

  3. #3

    Standart

    Teşekkürler...Devamını bekleriz paylaşımlarınızın

  4. #4

    Standart

    Çok güzel paylaşım ellerinize sağlık Ramone. Bir hatırlatma yapayım orginel dil dublajlı filmlerde relase bilgisini belirtelim lütfen

  5. #5

    Standart

    linkler ölü

  6. #6

    Standart

    visit Nickli Üyeden Alıntı
    linkler ölü
    Reup.Konu tasindi .kilit.

Benzer Konular

  1. Cevap: 6
    Son Mesaj : 31.Aralık.2012, 09:18
  2. Cevap: 3
    Son Mesaj : 27.Aralık.2012, 17:28
  3. Cevap: 8
    Son Mesaj : 28.Ocak.2011, 02:32
  4. Cevap: 55
    Son Mesaj : 16.Aralık.2010, 14:36
  5. Cevap: 5
    Son Mesaj : 24.Mayıs.2008, 12:25