emlaklik & sedatyucel

Neşeli Ayaklar | Happy Feet | DVDRip MP4 | 2006 | Türkçe | Rapid Download | iNDiR

NEŞELİ AYAKLAR HAPPY FEET 2006 DVDRiP MP4 Upload By MUHAMMED - (27.02.2009)

Bu konu 3613 kez görüntülendi ve 9 yorum aldı ...

    Konuyu değerlendir: Neşeli Ayaklar | Happy Feet | DVDRip MP4 | 2006 | Türkçe | Rapid Download | iNDiR

    5 üzerinden | Toplam: 0 kişi oyladı ve 3613 kez incelendi.


Toplam 10 adet sonuctan sayfa basi 1 ile 10 arasi kadar sonuc gösteriliyor
  1. #1

    XBOX Neşeli Ayaklar | Happy Feet | DVDRip MP4 | 2006 | Türkçe | Rapid Download | iNDiR


    NEŞELİ AYAKLAR

    HAPPY FEET

    2006


    DVDRiP MP4

    Upload By MUHAMMED - (27.02.2009)











    Yapım Yılı: 2006
    Süre: 108 dk
    Oyuncular
    Elijah Wood (ses)-- Mumble
    Brittany Murphy (ses)-- Gloria
    Hugh Jackman (ses)-- Memphis
    Nicole Kidman (ses)-- Norma Jean
    Hugo Weaving (ses)-- Noah
    Robin Williams (ses)-- Ramón/Lovelace/Cletus
    Yönetmen: George Miller, John Collee, Judy Morris
    Senarist: Warren Coleman
    Yapımcı: Bill Miller, Doug Mitchell
    Müzik: John Powell

    Happy Feet - (Neşeli Ayaklar)

    Antartika’da yaşayan İmparator peguenlerinin her birinin ruh eşini bulmak ve etkilemek için bir Kalbe Seslenen Şarkı’sı olmalıdır. Ve bir gün bu toplulukta şarkı söyleyemeyen bir penguen dünyaya gelir. Memphis ve Norma Jean’in oğlu Mumble dünyanın en kötü şarkıcısıdır. Ancak, nasıl olduysa kendisi çok iyi tap dansı yapar.






    General
    Complete name : D:\Neşeli Ayaklar.mp4
    Format : MPEG-4
    Format profile : Base Media
    Codec ID : isom
    File size : 364 MiB
    Duration : 1h 37mn
    Overall bit rate : 521 Kbps
    Encoded date : UTC 1970-01-01 00:00:00
    Tagged date : UTC 1970-01-01 00:00:00

    Video
    Format : MPEG-4 Visual
    Format profile : [email protected]
    Format settings, BVOP : No
    Format settings, QPel : No
    Format settings, GMC : No warppoints
    Format settings, Matrix : Default
    Codec ID : 20
    Duration : 1h 37mn
    Bit rate mode : Variable
    Bit rate : 453 Kbps
    Width : 320 pixels
    Height : 256 pixels
    Display aspect ratio : 5/4
    Frame rate mode : Constant
    Frame rate : 25.000 fps
    Resolution : 24 bits
    Colorimetry : 4:2:0
    Scan type : Progressive
    Bits/(Pixel*Frame) : 0.221
    Stream size : 316 MiB (87%)
    Encoded date : UTC 1970-01-01 00:00:00
    Tagged date : UTC 1970-01-01 00:00:00

    Audio
    Format : AAC
    Format/Info : Advanced Audio Codec
    Format version : Version 4
    Format profile : LC
    Format settings, SBR : No
    Codec ID : 40
    Duration : 1h 37mn
    Bit rate mode : Variable
    Bit rate : 64.1 Kbps
    Channel(s) : 2 channels
    Channel positions : L R
    Sampling rate : 32.0 KHz
    Resolution : 16 bits
    Stream size : 44.8 MiB (12%)
    Encoded date : UTC 1970-01-01 00:00:00
    Tagged date : UTC 1970-01-01 00:00:00




















    [hide][/hide]

    1 Part Boyutu: 100 Mb - Toplam Boyut: 380 Mb






    www.cshtr.com






  2. #2

    Standart

    Ellerien sağlık ekledim listeme biras çocuk niyetine izleyelim
    MUHAMMED ve benaffleck bunu beğendi.

  3. #3

    Standart

    Paylaşım için Teşekkürler.
    MUHAMMED ve benaffleck bunu beğendi.

  4. #4

    Standart

    tşk................
    MUHAMMED ve benaffleck bunu beğendi.

  5. #5

    Standart

    Teşekkürler
    benaffleck ve MUHAMMED bunu beğendi.

  6. #6

    Standart

    emeğe salık

  7. #7

    Standart

    linkler ölmüş maalesef

  8. #8

    Standart

    konu çöp linkler ölü hala

  9. #9

    Standart

    selam arkadaşlar,
    linklerde problem mi var acaba?

  10. #10

    Standart

    Konu kilit,re-up.

Benzer Konular

  1. Cevap: 20
    Son Mesaj : 16.Ocak.2012, 14:48
  2. Cevap: 22
    Son Mesaj : 23.Ekim.2011, 12:39
  3. Cevap: 8
    Son Mesaj : 09.Ocak.2011, 21:48
  4. Happy Feet | Neşeli Ayaklar | DvdRip | 2006 | Dual | TR & EN | 3 Alt Download | iNDiR
    Konu Sahibi ReDKiT Forum Türkçe Dublaj Çizgi ve Animasyon Filmler
    Cevap: 52
    Son Mesaj : 25.Ekim.2010, 15:26
  5. Happy Feet | Dvd Rip | MP4 | 2006 | Rapid Download | iNDiR | Tr Altyazılı
    Konu Sahibi MeMo Forum Http Kısmı Çöp Kutusu
    Cevap: 93
    Son Mesaj : 29.Eylül.2008, 13:36