emlaklik & sedatyucel

Geliebte Diebin | Son Hamle | 2002 | DVDRip | FS NL FSC | Download | iNDiR

Geliebte Diebin Son Hamle DVDRip Language | Dublaj Dili : German / Deutsch Release Date | Gösterim Tarihi : 2011 Uploaded By EmRebLs (06 Eylül 2011 )

Bu konu 4611 kez görüntülendi ve 12 yorum aldı ...

    Konuyu değerlendir: Geliebte Diebin | Son Hamle | 2002 | DVDRip | FS NL FSC | Download | iNDiR

    5 üzerinden | Toplam: 0 kişi oyladı ve 4611 kez incelendi.


Sayfa 2 Toplam 2 Sayfadan BirinciBirinci 12
Toplam 13 adet sonuctan sayfa basi 11 ile 13 arasi kadar sonuc gösteriliyor
  1. #1

    Dvdrip Geliebte Diebin | Son Hamle | 2002 | DVDRip | FS NL FSC | Download | iNDiR

    Geliebte Diebin

    Son Hamle

    DVDRip

    Language | Dublaj Dili : German / Deutsch
    Release Date | Gösterim Tarihi : 2011
    Uploaded By EmRebLs (06 Eylül 2011 )

    Bu paylaşımın toplam boyutu 610 MB olup, Fileserve Bitshare Filesonic Netload Uploaded Uploading sunucularına upload edilmiştir.

    Altyazı Takip Linki : http://www.turkcealtyazi.org/mov/031...te-diebin.html







    http://www.imdb.com/title/tt0315884/



    Alıntı

    IMDB Puanı:
    5.2/10
    Yapım:
    2002 ~ Almanya
    Tür:
    Aksiyon, Romantik, Suç
    Yönetmen:
    Thomas Roth
    Oyuncular:
    Bettina Zimmermann, Thure Riefenstein, Dietrich Hollinderbäumer, Jürgen Tarrach, Renate Krößner, Thomas Nötzig, Wolfgang S. Zechmayer
    Senaryo:
    Timo Berndt
    Yapımcı:
    Leah Hecker, Alexander Dannenberg
    Müzik:
    Andrej Melita
    Süre:
    1 saat 32 dk
    Filmin Özeti

    Film şüphe çekici bir kadının, birkaç polis tarafından izlenmesiyle başlıyor. Çeşitli yerlerden tarihi eser sayılabilecek küçük heykelcikler çalan bu gizemli kadının biraz dramatik bir geçmişi olduğu açığa çıkıyor. Kardeşiyle birlikte sürekli babaları tarafından dövülen ve saatlerce bir odaya kapatılan iki kardeş, ceza saatlerini geçirmek için eğlenceli bir yol buluyorlar. Babalarının eski satranç takımını keşfedip satranç oynamayı öğrendiklerinde ceza almak için ellerinden geleni yapmaya başlıyorlar. Yıllar geçtikten sonra iki kardeş büyüyor ve dünyadaki ilk satranç takımıyla bir maç yapmaya karar veriyorlar. Yani hertaraftan çaldıkları heykelciklerle.


     
    
    General
    Complete name                    : Geliebte.Diebin.2002.DVDRip.vip.cshtr.com.avi
    Format                           : AVI
    Format/Info                      : Audio Video Interleave
    File size                        : 605 MiB
    Duration                         : 1h 39mn
    Overall bit rate                 : 852 Kbps
    Writing library                  : MPlayer
    
    Video
    Format                           : MPEG-4 Visual
    Format profile                   : Streaming [email protected]
    Format settings, BVOP            : Yes
    Format settings, QPel            : No
    Format settings, GMC             : No warppoints
    Format settings, Matrix          : Default
    Codec ID                         : XVID
    Codec ID/Hint                    : XviD
    Duration                         : 1h 39mn
    Bit rate                         : 680 Kbps
    Width                            : 544 pixels
    Height                           : 304 pixels
    Display aspect ratio             : 16/9
    Frame rate                       : 23.976 fps
    Resolution                       : 24 bits
    Colorimetry                      : 4:2:0
    Scan type                        : Progressive
    Bits/(Pixel*Frame)               : 0.171
    Stream size                      : 483 MiB (80%)
    Writing library                  : XviD 1.1.2 (UTC 2006-11-01)
    
    Audio
    Format                           : MPEG Audio
    Format version                   : Version 1
    Format profile                   : Layer 3
    Codec ID                         : 55
    Codec ID/Hint                    : MP3
    Duration                         : 1h 39mn
    Bit rate mode                    : Constant
    Bit rate                         : 160 Kbps
    Channel(s)                       : 2 channels
    Sampling rate                    : 44.1 KHz
    Resolution                       : 16 bits
    Stream size                      : 114 MiB (19%)
    Alignment                        : Aligned on interleaves
    Interleave, duration             : 26 ms (0.63 video frame)
    Interleave, preload duration     : 809 ms
    










    Bir Part Boyutu: 205 MB - Toplam Boyut: 610 MB





    [HIDE]
     
    http://www.fileserve.com/file/DqzQbma/CSHTR.6911.F.EmRebLs.GD.2002.D.CSHTR.com.part1.rar
    http://www.fileserve.com/file/UQfRRvT/CSHTR.6911.F.EmRebLs.GD.2002.D.CSHTR.com.part2.rar
    http://www.fileserve.com/file/Dx755RN/CSHTR.6911.F.EmRebLs.GD.2002.D.CSHTR.com.part3.rar
    [/HIDE]



    [HIDE]
     
    http://bitshare.com/files/le2h6qe8/CSHTR.6911.F.EmRebLs.GD.2002.D.CSHTR.com.part3.rar.html
    http://bitshare.com/files/pepq7xvo/CSHTR.6911.F.EmRebLs.GD.2002.D.CSHTR.com.part2.rar.html
    http://bitshare.com/files/p0lzz593/CSHTR.6911.F.EmRebLs.GD.2002.D.CSHTR.com.part1.rar.html
    [/HIDE]



    [HIDE]
     
    http://www.filesonic.com/file/1876549464/CSHTR.6911.F.EmRebLs.GD.2002.D.CSHTR.com.part1.rar
    http://www.filesonic.com/file/1876549394/CSHTR.6911.F.EmRebLs.GD.2002.D.CSHTR.com.part2.rar
    http://www.filesonic.com/file/1876549814/CSHTR.6911.F.EmRebLs.GD.2002.D.CSHTR.com.part3.rar
    [/HIDE]



    [HIDE]
     
    http://www.netload.in/dateis53sK2h8GJ/CSHTR.6911.F.EmRebLs.GD.2002.D.CSHTR.com.part1.rar.htm
    http://www.netload.in/dateirb2wuboWCB/CSHTR.6911.F.EmRebLs.GD.2002.D.CSHTR.com.part2.rar.htm
    http://www.netload.in/dateiDzWtPkXBX8/CSHTR.6911.F.EmRebLs.GD.2002.D.CSHTR.com.part3.rar.htm
    [/HIDE]



    [HIDE]
     
    http://ul.to/b3gb0mrt/CSHTR.6911.F.EmRebLs.GD.2002.D.CSHTR.com.part1.rar
    http://ul.to/2amrlgo6/CSHTR.6911.F.EmRebLs.GD.2002.D.CSHTR.com.part2.rar
    http://ul.to/hracq8e1/CSHTR.6911.F.EmRebLs.GD.2002.D.CSHTR.com.part3.rar
    [/HIDE]



    [HIDE]
     
    http://www.wupload.com/file/161158281/CSHTR.6911.F.EmRebLs.GD.2002.D.CSHTR.com.part1.rar
    http://www.wupload.com/file/161158276/CSHTR.6911.F.EmRebLs.GD.2002.D.CSHTR.com.part2.rar
    http://www.wupload.com/file/161158279/CSHTR.6911.F.EmRebLs.GD.2002.D.CSHTR.com.part3.rar
    [/HIDE]







    www.cshtr.com


    tekocan, adilfaruk, user23 ve 7 kişi daha bunu beğendi.

  2. #11

    Standart

    Çok teşekkürler

  3. #12

    Standart

    linkler kapanmış

  4. #13

    Standart

    Reup.Konu kilit.
    musti4140 bunu beğendi.

Benzer Konular

  1. Cevap: 1
    Son Mesaj : 25.Aralık.2012, 17:18
  2. Just Wright | Doğru Hamle | 2010
    Konu Sahibi Eticon Forum Portal Film
    Cevap: 0
    Son Mesaj : 19.Mart.2011, 16:34
  3. Cevap: 0
    Son Mesaj : 19.Mart.2011, 16:32