emlaklik & sedatyucel

Altın Şans l Fools Gold l 2008 l DVDRip l TR Dublaj

Altın Şans l Fools Gold l 2008 l TÜRKÇE Fools Gold Dvdrip Xvid | 2008 | Altın Şans | TR Altyazı | İndirmek İçin Tıklayınız Fool's Gold MP4 İndirmek İçin Tıklayınız

Bu konu 5654 kez görüntülendi ve 27 yorum aldı ...

    Konuyu değerlendir: Altın Şans l Fools Gold l 2008 l DVDRip l TR Dublaj

    5 üzerinden | Toplam: 0 kişi oyladı ve 5654 kez incelendi.


Sayfa 2 Toplam 3 Sayfadan BirinciBirinci 123 SonuncuSonuncu
Toplam 28 adet sonuctan sayfa basi 11 ile 20 arasi kadar sonuc gösteriliyor
  1. #1

    Dvdrip Altın Şans l Fools Gold l 2008 l DVDRip l TR Dublaj

    Altın Şans l Fools Gold l 2008 l TÜRKÇE



    Fools Gold Dvdrip Xvid | 2008 | Altın Şans | TR Altyazı
    | İndirmek İçin Tıklayınız


    Fool's Gold MP4 [ 2008 ] İndirmek İçin Tıklayınız






    IMDB

    http://www.imdb.com/title/tt0770752/

    NFO

     
    Format                           : AVI
    Format/Info                      : Audio Video Interleave
    File size                        : 702 MiB
    Duration                         : 1h 47mn
    Overall bit rate                 : 911 Kbps
    Movie name                       : YENI CD.Title1.DVDRip
    Director                         : rahmi.demir
    Writing application              : Lavf51.19.0
    Product                          : YENI CD
    
    Video
    Format                           : MPEG-4 Visual
    Format profile                   : [email protected]
    Format settings, BVOP            : No
    Format settings, QPel            : No
    Format settings, GMC             : No warppoints
    Format settings, Matrix          : Default
    Codec ID                         : XVID
    Codec ID/Hint                    : XviD
    Duration                         : 1h 47mn
    Bit rate                         : 770 Kbps
    Width                            : 672 pixels
    Height                           : 280 pixels
    Display aspect ratio             : 2.400
    Frame rate                       : 23.976 fps
    Resolution                       : 24 bits
    Colorimetry                      : 4:2:0
    Scan type                        : Progressive
    Bits/(Pixel*Frame)               : 0.171
    Stream size                      : 594 MiB (85%)
    Writing library                  : XviD 1.1.2 (UTC 2006-11-01)
    
    Audio
    Format                           : MPEG Audio
    Format version                   : Version 1
    Format profile                   : Layer 3
    Codec ID                         : 55
    Codec ID/Hint                    : MP3
    Duration                         : 1h 47mn
    Bit rate mode                    : Constant
    Bit rate                         : 128 Kbps
    Channel(s)                       : 2 channels
    Sampling rate                    : 48.0 KHz
    Resolution                       : 16 bits
    Stream size                      : 98.7 MiB (14%)
    Alignment                        : Aligned on interleaves
    Interleave, duration             : 24 ms (0.58 video frame)
    Writing library                  : LAME3.97
    Konu

    Alıntı
    Gişe şampiyonu Hitch / Aşk Doktoru’nun yönetmeni Andy Tennant’dan romantik bir komedi-macera…
    Fool’s Gold / Altın Şans, 18. yüzyıldan kalma bir İspanyol hazinesinin peşinde olan hazine avcılarının eğlenceli macerasını konu alıyor. Hazine avcısı çifti Matthew McConaughey ve Kate Hudson canlandırırken, Donald Sutherland ve Ray Winstone kadroyu tamamlıyor…

    Ben ‘Finn’ Finnegan, İspanyol Kraliçesi’nin 1715’te denizde kaybolan 40 sandık dolusu paha biçilmez hazinesini bulmayı saplantı haline getirmiş, modern bir hazine avcısıdır. Finn, bu hazine uğruna Tess’le olan evliliği dahil herşeyini kaybetmiştir. Tam bu sırada Finn hazinenin yerine dair önemli bir ipucu bulur.

    Öte yandan Tess, milyarder iş adamı Nigel Honeycutt’a ait bir mega yatta iş bulmuş, hayata yeni bir başlangıç yapmıştır. Ne var ki, Finn’e de hazineyi bulabilmek için böyle bir tekne lazımdır. Nigel’ın yatına kapağı atan Finn, para babasını ve mirasyedi kızı Gemma’yı İspanyol hazinesini bulmak için kendisine
    Caps



    Download

    [hide]
     
    http://rapidshare.com/files/144607546/Altin.Sans.2008.DVDRip.TR_Dublaj.part1.rar
    http://rapidshare.com/files/144607697/Altin.Sans.2008.DVDRip.TR_Dublaj.part2.rar
    http://rapidshare.com/files/144607895/Altin.Sans.2008.DVDRip.TR_Dublaj.part3.rar
    http://rapidshare.com/files/144608068/Altin.Sans.2008.DVDRip.TR_Dublaj.part4.rar
    http://rapidshare.com/files/144608258/Altin.Sans.2008.DVDRip.TR_Dublaj.part5.rar
    http://rapidshare.com/files/144608444/Altin.Sans.2008.DVDRip.TR_Dublaj.part6.rar
    http://rapidshare.com/files/144608671/Altin.Sans.2008.DVDRip.TR_Dublaj.part7.rar
    http://rapidshare.com/files/144608679/Altin.Sans.2008.DVDRip.TR_Dublaj.part8.rar
    [/hide]

     
    
    
    
    RaR PaSS (Şifre)
    www.cshtr.com
    ...:: İyi Seyirler ::...


  2. #11

    Standart

    tşklerrrrr

  3. #12

    Standart

    teşekkürler

  4. #13

    Standart

    elıne saglık arkadasım

  5. #14

    Standart

    Teşekkürler

  6. #15

    Standart

    teşekkürler emeğinize sağlık...

  7. #16

    Standart

    çok güzel bi film teşekkürler

  8. #17

    Standart

    sağol dostum

  9. #18

    Standart

    paylaşım için teşekkürler
    arkap bunu beğendi.

  10. #19

    Standart

    çok teşekkürler

  11. #20

    Standart

    teşekkürler..

Benzer Konular

  1. Cevap: 1
    Son Mesaj : 19.Ocak.2015, 23:28
  2. Cevap: 34
    Son Mesaj : 29.Ocak.2013, 01:41
  3. Cevap: 0
    Son Mesaj : 20.Nisan.2011, 23:09
  4. Hellboy II: Altın Ordu | Türkçe Dublaj | DVDRip 2008
    Konu Sahibi maeko Forum Yerli ve Türkçe Dublaj Filmler
    Cevap: 3
    Son Mesaj : 28.Mayıs.2009, 13:19
  5. Cevap: 14
    Son Mesaj : 27.Aralık.2008, 11:54