emlaklik & sedatyucel

Tabutta Rövaşata | 1996 | Rapid | Download | iNDiR

Tabutta Rövaşata DVDRiP Language | Dublaj Dili : Türkçe Release Date | Gösterim Tarihi : 1996 Upload By SLaSh ( 19 Kasım 2011 ) Uploader Notu : İyi Seyirler.

Bu konu 10412 kez görüntülendi ve 22 yorum aldı ...

    Konuyu değerlendir: Tabutta Rövaşata | 1996 | Rapid | Download | iNDiR

    5 üzerinden 5.00 | Toplam: 1 kişi oyladı ve 10412 kez incelendi.


Sayfa 1 Toplam 3 Sayfadan 123 SonuncuSonuncu
Toplam 23 adet sonuctan sayfa basi 1 ile 10 arasi kadar sonuc gösteriliyor
  1. #1

    Dvdrip Tabutta Rövaşata | 1996 | Rapid | Download | iNDiR


    Tabutta Rövaşata

    DVDRiP

    Language | Dublaj Dili : Türkçe
    Release Date | Gösterim Tarihi : 1996
    Upload By SLaSh ( 19 Kasım 2011 )

    Uploader Notu : İyi Seyirler.








    Tabutta Röveşata (1996)




    Alıntı

    Yönetmen : Derviş Zaim
    Senaryo : Derviş Zaim
    Görüntü Yönetmeni : Mustafa Kuşcu
    Müzik : Baba Zula , Yansımalar
    Tür : Dram

    Filmin Konusu: Araba sevdalısı bir otomobil hırsızının hüzünlü öyküsü. Rumelihisarı'nı mesken tutan Mahsun (Ahmet Uğurlu), evsiz-barksız işsiz ve kimsesi olmayan bir garibandır. Tüm dostları balıkçılardır. Sabahçı kahvesindeki çay borçlarına kadar herşeyine balıkçı dostlarından Reis'in (Tuncel Kurtiz) sahiplendiği Mahsun, otomobil çalarak yaşamını sürdürür. Yaşamındaki tek tutkusu arabalardır. Geceleri çaldığı arabaları sabaha dek gezdikten sonra yerlerine bırakır. Çoğu zaman da onları garip bir coşkuyla, okşarcasına yıkayıp temizleyerek... Yine Reis'in sayesinde sandelyeler üzerinde uyuklamaktan kurtulur ve kahvenin tuvaletine bakma işini üstlenir. Bir gün, kahveye gelen eroin bağımlısı kıza (Ayşen Aydemir) aşık olur. Birden dünyası değişen Mahsun, hiçbir karşılık beklemeden, yatacak yeri olmayan kıza odasını açar. Ne var ki beyazcı kız, eroin almak için bedenini, bu açılan odada erkeklere satarak Mahsun'un saf dünyasında bir düş kırıklığı yaratacaktır.

    Oyuncular:
    Ahmet Uğurlu - Rolü: Mahsun
    Ayşen Özdemir - Rolü: Eroinci kız
    Tuncel Kurtiz - Rolü: Reis


     
    
    General
    Complete name                            : Tabutta Rövaşata (1996).avi
    Format                                   : AVI
    Format/Info                              : Audio Video Interleave
    File size                                : 1.45 GiB
    Duration                                 : 1h 17mn
    Overall bit rate                         : 2 683 Kbps
    
    Video
    Bit rate                                 : 2 225 Kbps
    Width                                    : 704 pixels
    Height                                   : 528 pixels
    Display aspect ratio                     : 4:3
    Frame rate                               : 25.000 fps
    Color space                              : YUV
    Chroma subsampling                       : 4:2:0
    Bit depth                                : 8 bits
    Scan type                                : Progressive
    Compression mode                         : Lossy
    Bits/(Pixel*Frame)                       : 0.239
    Stream size                              : 1.21 GiB (83%)
    
    Audio
    Format                                   : AC-3
    Format/Info                              : Audio Coding 3
    Format profile                           : Dolby Digital
    Bit rate mode                            : Constant
    Bit rate                                 : 448 Kbps
    Channel(s)                               : 2 channels
    Channel positions                        : Front: L R
    Sampling rate                            : 48.0 KHz
    Bit depth                                : 16 bits
    Compression mode                         : Lossy
    Stream size                              : 249 MiB (17%)













    Bir Part Boyutu: 390 MB - Toplam Boyut: 1,52 GB
    %5 Recover added




    [HIDE]
     
    http://www.filesonic.com/file/3947592884/aswdasd.part1.rar
    http://www.filesonic.com/file/3947602924/aswdasd.part2.rar
    http://www.filesonic.com/file/3949334014/aswdasd.part3.rar
    http://www.filesonic.com/file/3949338904/aswdasd.part4.rar
    http://www.filesonic.com/file/3949340074/aswdasd.part5.rar
    [/HIDE]




    [HIDE]
     
    Yükleniyor...
    [/HIDE]



    www.cshtr.com




    B4lyfe, a1001, gulegule ve 34 kişi daha bunu beğendi.

  2. #2

    Standart

    teşekkürler

  3. #3

    Standart

    indirelim bakalım teşekkürler.

  4. #4

    Standart

    indiriyorum. teşekkürler.

  5. #5

    Standart

    Enfes. İzlemeyi çok istediğim filmlerden biriydi.
    Baba Zula adlı efsane psychedelic/oryantal rock grubumuzun film için yapmış olduğu film müziği albümü de mevcuttur. Hatta daha geçen gün albümü satın aldım. İlgilenenlere.
    Upload için ayrıca teşekkürler.

  6. #6

    Standart

    sabırsızlanıyorum izlemek için. tesekkürlerrr..

  7. #7

    Standart

    İndirip izleyelim bakalım. Paylaşım için tşklr Hasan'ım

  8. #8

    Standart

    Sen daha izlemedin mi bu filmi? hemen izle, alırım ayağımın altına

  9. #9

    Standart

    3-4 kez izlediğim derviş zaim harikası herkese tavsiye ederim.müzikleri baba zuladan ancak yansımaların bab-ı esrar şarkısıda filmde kullanılmış.

  10. #10

    Standart

    çok saol dostum


Benzer Konular

  1. +18 Poison Ivy II | DVDRIP rmvb | 1996 | Rapid | Download | iNDiR
    Konu Sahibi Eticon Forum Http Kısmı Çöp Kutusu
    Cevap: 1
    Son Mesaj : 19.Haziran.2016, 15:14
  2. Cevap: 6
    Son Mesaj : 04.Şubat.2012, 01:06
  3. Cevap: 6
    Son Mesaj : 02.Ekim.2011, 14:12
  4. Crash | DVDRip XViD | 1996 | Rapid | Download | iNDiR +18
    Konu Sahibi HandSome Forum DVDRip | DVBRip Orj
    Cevap: 17
    Son Mesaj : 13.Eylül.2011, 17:26
  5. One Fine Day | 1996 | DvDrip | Rapid | iNDiR | Download
    Konu Sahibi imdeja Forum Http-Ftp CshTR Upload Harici Divx Linkler
    Cevap: 5
    Son Mesaj : 15.Şubat.2010, 23:38