emlaklik & sedatyucel

The Reef 2: High Tide | 2012 | DVDRip | Download | iNDiR

The Reef 2: High Tide DVDRip Language | Dublaj Dili : English Release Date | Gösterim Tarihi : 2012 Uploaded By Tiko (17 Eylül 2012 ) Bu paylaşımın toplam boyutu 900 MB olup, Turbobit Netload Filefactory Uploaded sunucularına upload edilmiştir.

Bu konu 8856 kez görüntülendi ve 1 yorum aldı ...

    Konuyu değerlendir: The Reef 2: High Tide | 2012 | DVDRip | Download | iNDiR

    5 üzerinden | Toplam: 0 kişi oyladı ve 8856 kez incelendi.


Toplam 2 adet sonuctan sayfa basi 1 ile 2 arasi kadar sonuc gösteriliyor
  1. #1

    Bölüm Yöneticisi

    Dvdrip The Reef 2: High Tide | 2012 | DVDRip | Download | iNDiR

    The Reef 2: High Tide

    DVDRip

    Language | Dublaj Dili : English
    Release Date | Gösterim Tarihi : 2012
    Uploaded By Tiko (17 Eylül 2012 )

    Bu paylaşımın toplam boyutu 900 MB olup, Turbobit Netload Filefactory Uploaded sunucularına upload edilmiştir.

    Uploader Notu :
    Daha Hızlı indirmek ve sitemize destek olmak için Premium hesap alırken
    lütfen aşağıdaki simgeleri tıklayarak alınız. Duyarlılığınız için teşekkür ederiz.



    Altyazı Takip Linki : http://www.turkcealtyazi.org/mov/197...high-tide.html







    http://www.imdb.com/title/tt1978567/



    Alıntı

    Trained in the skills of sea power, Pi the fish can fight a shark, sink a squid or batter any random predator that ever threatens his friends and neighbors on the reef. Unfortunately, being the only hero in town can take its toll, especially when a group of sharks declares that the end of the reef is soon at hand.


     
    
    Runtime ..........:1:22                                                      ?
    ? IMDb URL ........:http://www.imdb.com/title/tt1978567/                       ?
    ? Language .........:English                                                   ?
    ? File Size ........:900mb                                                     ?
    ? Release Date ......... 2012                                                  ?
    ? Source       ......... Your Gf                                               ?
    ? File Type    ......... Single AVI                                            ?
    ? PS3 Compatible ....... Could care less                                       ?
    ? Genre        ......... Kids                                                  ?
    ?                                                                              ?
    ?                                                                              ?
    ? Video                                                                        ?
    ?  ID                               : 0                                        ?
    ?  Format                           : MPEG-4 Visual                            ?
    ?  Format profile                   : Advanced [email protected]                       ?
    ?  Format settings, BVOP            : Yes                                      ?
    ?  Format settings, QPel            : No                                       ?
    ?  Format settings, GMC             : No warppoints                            ?
    ?  Format settings, Matrix          : Custom                                   ?
    ?  Codec ID                         : XVID                                     ?
    ?  Codec ID/Hint                    : XviD                                     ?
    ?  Duration                         : 1h 22mn                                  ?
    ?  Bit rate                         : 1481kbps                                 ?
    ?  Width                            : 624pixels                                ?
    ?  Height                           : 352pixels                                ?
    ?  Display aspect ratio             : 16:9                                     ?
    ?  Frame rate                       : 29.997fps                                ?
    ?  Color space                      : YUV                                      ?
    ?  Chroma subsampling               : 4:2:0                                    ?
    ?  Bit depth                        : 8 bits                                   ?
    ?  Scan type                        : Progressive                              ?
    ?  Bits/(Pixel*Frame)               : 0.234                                    ?
    ?  Stream size                      : 892 MiB (86%)                            ?
    ?  Writing library                  : XviD 1.2.1 (UTC 2008-12-04)              ?
    ?                                                                              ?
    ?                                                                              ?
    ? Audio                                                                        ?
    ? ID                               : 1                                         ?
    ? Format                           : AC3                                       ?
    ? Format/Info                      : MPEG                                      ?
    ? Mode extension                   : CM (complete main)                        ?
    ? Codec ID                         : 2000                                      ?
    ? Duration                         : 1h 22mn                                   ?
    ? Bit rate mode                    : Constant                                  ?
    ? Bit rate                         : 192kbps                                   ?
    ? Channel(s)                       : 2channels                                 ?
    ? Channel positions                : Front: L R                                ?
    ? Sampling rate                    : 48.0 KHz                                  ?
    ? Bit depth                        : 16 bits                                   ?
    ? Stream size                      : 302 MiB                                   ?
    ? Alignment                        : Aligned on interleaves                    ?
    ? Interleave, duration             : 42 ms (1.00 video frame)                  ?
    ? Interleave, preload duration     : 512 ms                                    ?
                                               
    













    Bir Part Boyutu: 299 MB - Toplam Boyut: 900 MB





    [HIDE]
     
    http://turbobit.net/clbw4bn2ozjl/CSHTR.16912.F.Tiko.The.Reef.2.High.Tide.DVDRip.XviD.AC3.UnKnOwN.vip.cshtr.com.part3.rar.html
    http://turbobit.net/p25oqvt79qjq/CSHTR.16912.F.Tiko.The.Reef.2.High.Tide.DVDRip.XviD.AC3.UnKnOwN.vip.cshtr.com.part2.rar.html
    http://turbobit.net/ws6ke0wdefe5/CSHTR.16912.F.Tiko.The.Reef.2.High.Tide.DVDRip.XviD.AC3.UnKnOwN.vip.cshtr.com.part1.rar.html
    http://turbobit.net/qn91u1oi01pl/CSHTR.16912.F.Tiko.The.Reef.2.High.Tide.DVDRip.XviD.AC3.UnKnOwN.vip.cshtr.com.part4.rar.html
    [/HIDE]



    [HIDE]
     
    http://www.filefactory.com/file/3yrq9gvk1gyj/n/CSHTR.16912.F.Tiko.The.Reef.2.High.Tide.DVDRip.XviD.AC3.UnKnOwN.vip.cshtr.com.part4.rar
    http://www.filefactory.com/file/jz30flkxion/n/CSHTR.16912.F.Tiko.The.Reef.2.High.Tide.DVDRip.XviD.AC3.UnKnOwN.vip.cshtr.com.part2.rar
    http://www.filefactory.com/file/5o1t5ard47z1/n/CSHTR.16912.F.Tiko.The.Reef.2.High.Tide.DVDRip.XviD.AC3.UnKnOwN.vip.cshtr.com.part1.rar
    http://www.filefactory.com/file/10xratg8uvo7/n/CSHTR.16912.F.Tiko.The.Reef.2.High.Tide.DVDRip.XviD.AC3.UnKnOwN.vip.cshtr.com.part3.rar
    [/HIDE]



    [HIDE]
     
    http://www.netload.in/dateiqQD1Y4wHm8/CSHTR.16912.F.Tiko.The.Reef.2.High.Tide.DVDRip.XviD.AC3.UnKnOwN.vip.cshtr.com.part4.rar.htm
    http://www.netload.in/datei224iigxaTF/CSHTR.16912.F.Tiko.The.Reef.2.High.Tide.DVDRip.XviD.AC3.UnKnOwN.vip.cshtr.com.part2.rar.htm
    http://www.netload.in/dateiqP2WyH9ooi/CSHTR.16912.F.Tiko.The.Reef.2.High.Tide.DVDRip.XviD.AC3.UnKnOwN.vip.cshtr.com.part3.rar.htm
    http://www.netload.in/datei6BOdsaEwiR/CSHTR.16912.F.Tiko.The.Reef.2.High.Tide.DVDRip.XviD.AC3.UnKnOwN.vip.cshtr.com.part1.rar.htm
    
    [/HIDE]



    [HIDE]
     
    http://uploaded.net/file/fe838xjb/CSHTR.16912.F.Tiko.The.Reef.2.High.Tide.DVDRip.XviD.AC3.UnKnOwN.vip.cshtr.com.part3.rar
    http://uploaded.net/file/wc5si55z/CSHTR.16912.F.Tiko.The.Reef.2.High.Tide.DVDRip.XviD.AC3.UnKnOwN.vip.cshtr.com.part2.rar
    http://uploaded.net/file/x3d0llg1/CSHTR.16912.F.Tiko.The.Reef.2.High.Tide.DVDRip.XviD.AC3.UnKnOwN.vip.cshtr.com.part1.rar
    http://uploaded.net/file/lxexosnt/CSHTR.16912.F.Tiko.The.Reef.2.High.Tide.DVDRip.XviD.AC3.UnKnOwN.vip.cshtr.com.part4.rar
    [/HIDE]







    www.cshtr.com


    amazon bunu beğendi.

  2. #2

    Bölüm Yöneticisi

    Standart

    Linkler eklendi.
    amazon bunu beğendi.