The Way

LIMITED DVDRip XviD - Counterfeit

Language | Dublaj Dili : English
Release Date | Gösterim Tarihi : 2010
Uploaded By EmRebLs (07 Şubat 2012 )

Bu paylaşımın toplam boyutu GB olup, Bitshare Netload Uploaded sunucularına upload edilmiştir.

Altyazı Takip Linki : http://www.turkcealtyazi.org/mov/1441912/the-way.html







http://www.imdb.com/title/tt1441912/



Alıntı

The Way Film Ekibi
Yönetmen
Emilio Estevez
Senaryo
Emilio Estevez

Görüntü Yönetmeni
Juan Miguel Azpiroz

Müzik
Tyler Bates

Oyuncu Rol
Emilio Estevez Daniel
Martin Sheen Tom
Deborah Kara Unger Sarah
Yorick van Wageningen Joost
James Nesbitt Jack
Tchéky Karyo Captain Henri
Spencer Garrett Phil
Ángela Molina Angélica
Antonio Gil Ishmael
Simón Andreu Don Santiago
Carlos Leal Jean
Nacho Estévez Pilgrim
Santi Prego Miguel
Eusebio Lázaro Ramón
Joan Díez Carlo
The Way Detaylar
Yapım : 2010

Ülke : Amerika

Tür : Aksiyon, Macera, Komedi
An American father travels to France to recover the body of his estranged son who died while traveling "El camino de Santiago" from France to Santiago de Compostela (Spain)




 

General
Complete name                    : The.Way.2011.LIMITED.DVDRip.XviD-Counterfeit.CD1.vip.cshtr.com.avi
Format                           : AVI
Format/Info                      : Audio Video Interleave
File size                        : 698 MiB
Duration                         : 59mn 38s
Overall bit rate                 : 1 637 Kbps
Movie name                       : WWW.DOWNBOX.ME - c-the.way.xvid.cd1
Writing application              : VirtualDubMod 1.5.10.2 (build 2540/release) VirtualDubMod build 2540/release
segm                             : 

Video
ID                               : 0
Format                           : MPEG-4 Visual
Format profile                   : Advanced [email protected]
Format settings, BVOP            : 2
Format settings, QPel            : No
Format settings, GMC             : No warppoints
Format settings, Matrix          : Default (H.263)
Codec ID                         : XVID
Codec ID/Hint                    : XviD
Duration                         : 59mn 38s
Bit rate                         : 1 179 Kbps
Width                            : 640 pixels
Height                           : 336 pixels
Display aspect ratio             : 1.905
Frame rate                       : 23.976 fps
Color space                      : YUV
Chroma subsampling               : 4:2:0
Bit depth                        : 8 bits
Scan type                        : Progressive
Compression mode                 : Lossy
Bits/(Pixel*Frame)               : 0.229
Stream size                      : 503 MiB (72%)
Writing library                  : XviD 1.2.1 (UTC 2008-12-04)

Audio
ID                               : 1
Format                           : AC-3
Format/Info                      : Audio Coding 3
Mode extension                   : CM (complete main)
Codec ID                         : 2000
Duration                         : 59mn 38s
Bit rate mode                    : Constant
Bit rate                         : 448 Kbps
Channel(s)                       : 6 channels
Channel positions                : Front: L C R, Side: L R, LFE
Sampling rate                    : 48.0 KHz
Bit depth                        : 16 bits
Compression mode                 : Lossy
Stream size                      : 191 MiB (27%)
Alignment                        : Split accross interleaves
Interleave, duration             : 42 ms (1.00 video frame)
Interleave, preload duration     : 500 ms
Language                         : un










Bir Part Boyutu: 205 MB - Toplam Boyut: GB





[HIDE]
 
http://bitshare.com/files/hf9m97fi/CSHTR.7212.F.EmRebLs.Th3Yol.2011.D.CSHTR.com.part6.rar.html
http://bitshare.com/files/0ej6pf2u/CSHTR.7212.F.EmRebLs.Th3Yol.2011.D.CSHTR.com.part7.rar.html
http://bitshare.com/files/8pe99dz3/CSHTR.7212.F.EmRebLs.Th3Yol.2011.D.CSHTR.com.part5.rar.html
http://bitshare.com/files/pjn8ts2n/CSHTR.7212.F.EmRebLs.Th3Yol.2011.D.CSHTR.com.part4.rar.html
http://bitshare.com/files/dr8bsnc5/CSHTR.7212.F.EmRebLs.Th3Yol.2011.D.CSHTR.com.part2.rar.html
http://bitshare.com/files/neduua99/CSHTR.7212.F.EmRebLs.Th3Yol.2011.D.CSHTR.com.part3.rar.html
http://bitshare.com/files/tyd6zixv/CSHTR.7212.F.EmRebLs.Th3Yol.2011.D.CSHTR.com.part1.rar.html
[/HIDE]



[HIDE]
 
http://www.netload.in/datei94hig6gaxv/CSHTR.7212.F.EmRebLs.Th3Yol.2011.D.CSHTR.com.part1.rar.htm
http://www.netload.in/datei5WHdTpMfwB/CSHTR.7212.F.EmRebLs.Th3Yol.2011.D.CSHTR.com.part2.rar.htm
http://www.netload.in/datei7tYAdAsSf5/CSHTR.7212.F.EmRebLs.Th3Yol.2011.D.CSHTR.com.part3.rar.htm
http://www.netload.in/dateiYlOJOqehGD/CSHTR.7212.F.EmRebLs.Th3Yol.2011.D.CSHTR.com.part4.rar.htm
http://www.netload.in/dateiTUs2cPpE46/CSHTR.7212.F.EmRebLs.Th3Yol.2011.D.CSHTR.com.part5.rar.htm
http://www.netload.in/datei0RCyc7ZqdI/CSHTR.7212.F.EmRebLs.Th3Yol.2011.D.CSHTR.com.part6.rar.htm
http://www.netload.in/dateiADN4M1qxoq/CSHTR.7212.F.EmRebLs.Th3Yol.2011.D.CSHTR.com.part7.rar.htm
[/HIDE]



[HIDE]
 
http://ul.to/ml16lyx0/CSHTR.7212.F.EmRebLs.Th3Yol.2011.D.CSHTR.com.part1.rar
http://ul.to/tiw6uiwg/CSHTR.7212.F.EmRebLs.Th3Yol.2011.D.CSHTR.com.part2.rar
http://ul.to/yoxho095/CSHTR.7212.F.EmRebLs.Th3Yol.2011.D.CSHTR.com.part3.rar
http://ul.to/3aeyzxpq/CSHTR.7212.F.EmRebLs.Th3Yol.2011.D.CSHTR.com.part4.rar
http://ul.to/dg7eswk2/CSHTR.7212.F.EmRebLs.Th3Yol.2011.D.CSHTR.com.part5.rar
http://ul.to/u38t3g59/CSHTR.7212.F.EmRebLs.Th3Yol.2011.D.CSHTR.com.part6.rar
http://ul.to/b43303b1/CSHTR.7212.F.EmRebLs.Th3Yol.2011.D.CSHTR.com.part7.rar
[/HIDE]







www.cshtr.com