Deserter

DVDRiP AC3 READNFO XViD-INSPiRAL

Language | Dublaj Dili : English
Release Date | Gösterim Tarihi : 2002
Uploaded By EmRebLs (29 Ocak 2012 )

Bu paylaşımın toplam boyutu 1,58 GB olup, Bitshare Netload Uploaded sunucularına upload edilmiştir.

Altyazı Takip Linki : http://www.turkcealtyazi.org/mov/031...gionnaire.html







http://www.imdb.com/title/tt0313608/



Alıntı

Yönetmen:Martin Huberty
Ülke: İngiltere
Tür: Dram | Savaş
Rating:5.8 (108 Oy)
Vizyon Tarihi:30 Nisan 2002 (İngiltere)
Süre:90 dakika
Dil:İngilizce
Senaryo:Simon Murray | Axel Aylwen | William M. Akers | tümü »
Müzikebbie Wiseman
Görüntü Yönetmeniino Parks
Yapımcılar:Laura Burrows | Peter Heslop | Martin Huberty | tümü »
Nam-ı Diğer: Deserter
Firma: Simon Films




 

Video
ID : 0
Format : MPEG-4 Visual
Format profile : Advanced [email protected]
Format settings, BVOP : 2
Format settings, QPel : No
Format settings, GMC : No warppoints
Format settings, Matrix : Default (MPEG)
Muxing mode : Packed bitstream
Codec ID : XVID
Codec ID/Hint : XviD
Duration : 1h 30mn
Bit rate : 2 042 Kbps
Width : 720 pixels
Height : 384 pixels
Display aspect ratio : 1.875
Frame rate : 25.000 fps
Color space : YUV
Chroma subsampling : 4:2:0
Bit depth : 8 bits
Scan type : Progressive
Compression mode : Lossy
Bits/(Pixel*Frame) : 0.295
Stream size : 1.29 GiB (82%)
Writing library : XviD 64
 
Audio
ID : 1
Format : AC-3
Format/Info : Audio Coding 3
Mode extension : CM (complete main)
Codec ID : 2000
Duration : 1h 30mn
Bit rate mode : Constant
Bit rate : 448 Kbps
Channel(s) : 6 channels
Channel positions : Front: L C R, Side: L R, LFE
Sampling rate : 48.0 KHz
Bit depth : 16 bits
Compression mode : Lossy
Stream size : 290 MiB (18%)
Alignment : Aligned on interleaves
Interleave, duration : 40 ms (1.00 video frame)
Interleave, preload duration : 512 ms












Bir Part Boyutu: 205 MB - Toplam Boyut: 1,58 GB





[HIDE]
 
Yükleniyor...
[/HIDE]



[HIDE]
 
http://www.netload.in/dateinG4vdbvLyY/CSHTR.29112.F.EmRebLs.Mhvdci.2012.D.CSHTR.com.part01.rar.htm
http://www.netload.in/dateinS37l1wckH/CSHTR.29112.F.EmRebLs.Mhvdci.2012.D.CSHTR.com.part02.rar.htm
http://www.netload.in/dateidM7xLxrgUJ/CSHTR.29112.F.EmRebLs.Mhvdci.2012.D.CSHTR.com.part03.rar.htm
http://www.netload.in/dateiy2WBnn9Lla/CSHTR.29112.F.EmRebLs.Mhvdci.2012.D.CSHTR.com.part04.rar.htm
http://www.netload.in/dateirlbh6arH3S/CSHTR.29112.F.EmRebLs.Mhvdci.2012.D.CSHTR.com.part05.rar.htm
http://www.netload.in/dateiwHmzbkIg9B/CSHTR.29112.F.EmRebLs.Mhvdci.2012.D.CSHTR.com.part06.rar.htm
http://www.netload.in/dateiRQk9SsNQJ1/CSHTR.29112.F.EmRebLs.Mhvdci.2012.D.CSHTR.com.part07.rar.htm
http://www.netload.in/dateiDsoeMg64zR/CSHTR.29112.F.EmRebLs.Mhvdci.2012.D.CSHTR.com.part08.rar.htm
[/HIDE]



[HIDE]
 
http://ul.to/mges86yw/CSHTR.29112.F.EmRebLs.Mhvdci.2012.D.CSHTR.com.part01.rar
http://ul.to/paq9q71a/CSHTR.29112.F.EmRebLs.Mhvdci.2012.D.CSHTR.com.part02.rar
http://ul.to/qbc9no9z/CSHTR.29112.F.EmRebLs.Mhvdci.2012.D.CSHTR.com.part03.rar
http://ul.to/b4a83829/CSHTR.29112.F.EmRebLs.Mhvdci.2012.D.CSHTR.com.part04.rar
http://ul.to/4eyvlbss/CSHTR.29112.F.EmRebLs.Mhvdci.2012.D.CSHTR.com.part05.rar
http://ul.to/5fjmkg09/CSHTR.29112.F.EmRebLs.Mhvdci.2012.D.CSHTR.com.part06.rar
http://ul.to/rusrnu89/CSHTR.29112.F.EmRebLs.Mhvdci.2012.D.CSHTR.com.part07.rar
http://ul.to/i3ej3hho/CSHTR.29112.F.EmRebLs.Mhvdci.2012.D.CSHTR.com.part08.rar
[/HIDE]







www.cshtr.com