emlaklik & sedatyucel

Don't Be Afraid of the Dark | 2010 | HDRip VIP3R | FS NL FSC | Download | iNDiR

Don't Be Afraid of the Dark Karanlıktan Korkma HDRip VIP3R Language | Dublaj Dili : English Release Date | Gösterim Tarihi : 2010 Subtitle | Altyazı : Türkçe (Pakette) Uploaded By Aykut_K (06 Aralık 2011 )

Bu konu 8684 kez görüntülendi ve 1 yorum aldı ...

    Konuyu değerlendir: Don't Be Afraid of the Dark | 2010 | HDRip VIP3R | FS NL FSC | Download | iNDiR

    5 üzerinden | Toplam: 0 kişi oyladı ve 8684 kez incelendi.


Toplam 2 adet sonuctan sayfa basi 1 ile 2 arasi kadar sonuc gösteriliyor
  1. #1

    Genel Yönetici

    Hdrip Don't Be Afraid of the Dark | 2010 | HDRip VIP3R | FS NL FSC | Download | iNDiR

    Don't Be Afraid of the Dark

    Karanlıktan Korkma

    HDRip VIP3R

    Language | Dublaj Dili : English
    Release Date | Gösterim Tarihi : 2010
    Subtitle | Altyazı : Türkçe (Pakette)
    Uploaded By Aykut_K (06 Aralık 2011 )

    Bu paylaşımın toplam boyutu 986 MB olup, Fileserve Bitshare Filesonic Netload sunucularına upload edilmiştir.

    Uploader Notu : İyi eğlenceler







    http://www.imdb.com/title/tt1270761/



    Alıntı

    14 yaşında sessiz ve kendi dünyasında bir genç kız olan Sally, babası ve onun kız arkadaşı Kim ile birlikte 19. yüzyıldan kalma eski bir eve taşınır. Bir süre sonra evde yolunda gitmeyen birşeyler sezinler. Merdiven altında kötülük saçan bir takım yaratıklar vardır, daha da kötüsü bu uğursuz varlıklar genç kızın ruhunun kendilerine ait olduğunu düşünmektedir.




     
    
    General
    Format                         : AVI
    Format/Info                    : Audio Video Interleave
    File size                      : 986 MiB
    Duration                       : 1h 38mn
    Overall bit rate               : 1 395 Kbps
    Writing library                : Boilsoft AVI tool build 1/release
    
    Video
    ID                             : 0
    Format                         : MPEG-4 Visual
    Format profile                 : Advanced [email protected]
    Format settings, BVOP          : 1
    Format settings, QPel          : No
    Format settings, GMC           : No warppoints
    Format settings, Matrix        : Custom
    Codec ID                       : XVID
    Codec ID/Hint                  : XviD
    Duration                       : 1h 38mn
    Bit rate                       : 1 191 Kbps
    Width                          : 720 pixels
    Height                         : 340 pixels
    Display aspect ratio           : 2.2:1
    Frame rate                     : 29.970 fps
    Color space                    : YUV
    Chroma subsampling             : 4:2:0
    Bit depth                      : 8 bits
    Scan type                      : Progressive
    Compression mode               : Lossy
    Bits/(Pixel*Frame)             : 0.162
    Stream size                    : 842 MiB (85%)
    Writing library                : XviD 1.2.1 (UTC 2008-12-04)
    
    Audio
    ID                             : 1
    Format                         : AC-3
    Format/Info                    : Audio Coding 3
    Mode extension                 : CM (complete main)
    Codec ID                       : 2000
    Duration                       : 1h 38mn
    Bit rate mode                  : Constant
    Bit rate                       : 192 Kbps
    Channel(s)                     : 2 channels
    Channel positions              : Front: L R
    Sampling rate                  : 48.0 KHz
    Bit depth                      : 16 bits
    Compression mode               : Lossy
    Stream size                    : 136 MiB (14%)
    Alignment                      : Aligned on interleaves
    Interleave, duration           : 33 ms (1.00 video frame)
    Interleave, preload duration   : 512 ms
    
    










    Bir Part Boyutu: 201 MB - Toplam Boyut: 986 MB





    [HIDE]
     
    http://www.fileserve.com/file/yNgMTmf/CSHTR.061211.F.Aykut_K.karanliktankormka.CSHTR.com.part1.rar
    http://www.fileserve.com/file/vdFbBkd/CSHTR.061211.F.Aykut_K.karanliktankormka.CSHTR.com.part2.rar
    http://www.fileserve.com/file/wfdvs2x/CSHTR.061211.F.Aykut_K.karanliktankormka.CSHTR.com.part3.rar
    http://www.fileserve.com/file/8DtJkNw/CSHTR.061211.F.Aykut_K.karanliktankormka.CSHTR.com.part4.rar
    http://www.fileserve.com/file/7zuhzHR/CSHTR.061211.F.Aykut_K.karanliktankormka.CSHTR.com.part5.rar
    [/HIDE]



    [HIDE]
     
    http://bitshare.com/files/5py6ph75/CSHTR.061211.F.Aykut_K.karanliktankormka.CSHTR.com.part1.rar.html
    http://bitshare.com/files/nfw2yaht/CSHTR.061211.F.Aykut_K.karanliktankormka.CSHTR.com.part2.rar.html
    http://bitshare.com/files/6vtunbwv/CSHTR.061211.F.Aykut_K.karanliktankormka.CSHTR.com.part3.rar.html
    http://bitshare.com/files/4ttls3lj/CSHTR.061211.F.Aykut_K.karanliktankormka.CSHTR.com.part4.rar.html
    http://bitshare.com/files/nlvx1rpn/CSHTR.061211.F.Aykut_K.karanliktankormka.CSHTR.com.part5.rar.html
    [/HIDE]



    [HIDE]
     
    http://www.filesonic.com/file/4109513365/CSHTR.061211.F.Aykut_K.karanliktankormka.CSHTR.com.part1.rar
    http://www.filesonic.com/file/4109503835/CSHTR.061211.F.Aykut_K.karanliktankormka.CSHTR.com.part2.rar
    http://www.filesonic.com/file/4109503805/CSHTR.061211.F.Aykut_K.karanliktankormka.CSHTR.com.part3.rar
    http://www.filesonic.com/file/4109456635/CSHTR.061211.F.Aykut_K.karanliktankormka.CSHTR.com.part4.rar
    http://www.filesonic.com/file/4109456665/CSHTR.061211.F.Aykut_K.karanliktankormka.CSHTR.com.part5.rar
    [/HIDE]



    [HIDE]
     
    http://www.netload.in/dateiPKsvNLPWMw/CSHTR.061211.F.Aykut_K.karanliktankormka.CSHTR.com.part1.rar.htm
    http://www.netload.in/dateib6oPItLcuA/CSHTR.061211.F.Aykut_K.karanliktankormka.CSHTR.com.part2.rar.htm
    http://www.netload.in/dateifwdc6a8DX5/CSHTR.061211.F.Aykut_K.karanliktankormka.CSHTR.com.part3.rar.htm
    http://www.netload.in/datei61bpk2KYvz/CSHTR.061211.F.Aykut_K.karanliktankormka.CSHTR.com.part4.rar.htm
    http://www.netload.in/dateifagEBJqGVE/CSHTR.061211.F.Aykut_K.karanliktankormka.CSHTR.com.part5.rar.htm
    [/HIDE]







    www.cshtr.com


    Staf. Auris bunu beğendi.

  2. #2

    Standart

    Teşekkürler netload yeniden yükler misiniz...