Deadly Honeymoon

Ölümcül Balayı

DVDRip XviD - DMZ

Language | Dublaj Dili : English
Release Date | Gösterim Tarihi : 2010
Uploaded By EmRebLs (18 Eylül 2011 )

Bu paylaşımın toplam boyutu 706 MB olup, Fileserve Bitshare Filesonic Netload Uploaded Wupload sunucularına upload edilmiştir.

Altyazı Takip Linki : http://www.turkcealtyazi.org/mov/152...honeymoon.html







http://www.imdb.com/title/tt1526585/



Alıntı

Yapım:
2010 ~ ABD
Tür:
Dram, Gerilim, Gizem, Suç
Yönetmen:
Paul Shapiro
Oyuncular:
Summer Glau, Chris Carmack, Emily Foxler, Tiffany Hofstetter, Zoe Mclellan, Adam Tsekhman, Erik Palladino, Haley Cook, Joah Buley, Mark Harelik, Michael Cowell, Peter Katona, Sergey Russu, Tom Holowach, Traci Burgard
Senaryo:
Ron McGee
Yapımcı:
Angela Laprete, Stanton W. Kamens, Robyn Snyder
Görüntü Yönetmeni:
Michael Lohmann
Müzik:
Joseph Conlan
Süre:
1 saat 29 dk
Gösterim Tarihi:
25 Nisan 2010 (ABD)
Filmin Özeti

Denver'da evlenen iki genç insan Lindsey (Summer Glau) ve Trevor Forrest (Chris Carmack) bir balayı gemsine binerler. Görünüşte mükemmel geçen bu mutlu gün ne yazıkki işler istenildiği gibi gitmeyecektir.Bu mutlu an korkunç bir kabusa dönecektir.


 

General
Complete name                    : Deadly.Honeymoon.2010.DVDRip.XviD-aAF.avi
Format                           : AVI
Format/Info                      : Audio Video Interleave
File size                        : 700 MiB
Duration                         : 1h 24mn
Overall bit rate                 : 1 155 Kbps
Writing application              : VirtualDubMod 1.5.10.2 (build 2540/release)
Writing library                  : VirtualDubMod build 2540/release

Video
Format                           : MPEG-4 Visual
Format profile                   : Streaming [email protected]
Format settings, BVOP            : Yes
Format settings, QPel            : No
Format settings, GMC             : No warppoints
Format settings, Matrix          : Default
Codec ID                         : XVID
Codec ID/Hint                    : XviD
Duration                         : 1h 24mn
Bit rate                         : 1 012 Kbps
Width                            : 624 pixels
Height                           : 352 pixels
Display aspect ratio             : 16/9
Frame rate                       : 25.000 fps
Resolution                       : 24 bits
Colorimetry                      : 4:2:0
Scan type                        : Progressive
Bits/(Pixel*Frame)               : 0.184
Stream size                      : 614 MiB (88%)
Writing library                  : XviD 64

Audio
Format                           : MPEG Audio
Format version                   : Version 1
Format profile                   : Layer 3
Codec ID                         : 55
Codec ID/Hint                    : MP3
Duration                         : 1h 24mn
Bit rate mode                    : Variable
Bit rate                         : 130 Kbps
Nominal bit rate                 : 128 Kbps
Channel(s)                       : 2 channels
Sampling rate                    : 48.0 KHz
Resolution                       : 16 bits
Stream size                      : 78.5 MiB (11%)
Alignment                        : Aligned on interleaves
Interleave, duration             : 24 ms (0.60 video frame)
Interleave, preload duration     : 142 ms
Writing library                  : LAME3.90.
Encoding settings                : ABR










Bir Part Boyutu: 205 MB - Toplam Boyut: 706 MB





[HIDE]
 
http://www.fileserve.com/file/3nwfpms/CSHTR.18911.F.EmRebLs.OldurenBalAyi.2010.D.CSHTR.com.part1.rar
http://www.fileserve.com/file/gB56US3/CSHTR.18911.F.EmRebLs.OldurenBalAyi.2010.D.CSHTR.com.part2.rar
http://www.fileserve.com/file/sJMKp4D/CSHTR.18911.F.EmRebLs.OldurenBalAyi.2010.D.CSHTR.com.part3.rar
http://www.fileserve.com/file/wZ2SkyG/CSHTR.18911.F.EmRebLs.OldurenBalAyi.2010.D.CSHTR.com.part4.rar
[/HIDE]



[HIDE]
 

http://bitshare.com/files/x3cnp8if/CSHTR.18911.F.EmRebLs.OldurenBalAyi.2010.D.CSHTR.com.part1.rar.html
http://bitshare.com/files/poo29rut/CSHTR.18911.F.EmRebLs.OldurenBalAyi.2010.D.CSHTR.com.part2.rar.html
http://bitshare.com/files/ehkt3q55/CSHTR.18911.F.EmRebLs.OldurenBalAyi.2010.D.CSHTR.com.part3.rar.html
http://bitshare.com/files/irpink3q/CSHTR.18911.F.EmRebLs.OldurenBalAyi.2010.D.CSHTR.com.part4.rar.html
[/HIDE]



[HIDE]
 
http://www.filesonic.com/file/2052274394/CSHTR.18911.F.EmRebLs.OldurenBalAyi.2010.D.CSHTR.com.part1.rar
http://www.filesonic.com/file/2052682134/CSHTR.18911.F.EmRebLs.OldurenBalAyi.2010.D.CSHTR.com.part2.rar
http://www.filesonic.com/file/2052292454/CSHTR.18911.F.EmRebLs.OldurenBalAyi.2010.D.CSHTR.com.part3.rar
http://www.filesonic.com/file/2052272254/CSHTR.18911.F.EmRebLs.OldurenBalAyi.2010.D.CSHTR.com.part4.rar
[/HIDE]



[HIDE]
 
http://www.netload.in/datei1byNjjCK8R/CSHTR.18911.F.EmRebLs.OldurenBalAyi.2010.D.CSHTR.com.part1.rar.htm
http://www.netload.in/dateiMe1uONF3Yx/CSHTR.18911.F.EmRebLs.OldurenBalAyi.2010.D.CSHTR.com.part2.rar.htm
http://www.netload.in/dateitKUMBGJQ0M/CSHTR.18911.F.EmRebLs.OldurenBalAyi.2010.D.CSHTR.com.part3.rar.htm
http://www.netload.in/dateix0R8AaWtAq/CSHTR.18911.F.EmRebLs.OldurenBalAyi.2010.D.CSHTR.com.part4.rar.htm
[/HIDE]



[HIDE]
 
http://ul.to/sf5emtde/CSHTR.18911.F.EmRebLs.OldurenBalAyi.2010.D.CSHTR.com.part1.rar
http://ul.to/h75qzmsm/CSHTR.18911.F.EmRebLs.OldurenBalAyi.2010.D.CSHTR.com.part2.rar
http://ul.to/doe60bh8/CSHTR.18911.F.EmRebLs.OldurenBalAyi.2010.D.CSHTR.com.part3.rar
http://ul.to/qgk04a3o/CSHTR.18911.F.EmRebLs.OldurenBalAyi.2010.D.CSHTR.com.part4.rar
[/HIDE]



[HIDE]
 
http://www.wupload.com/file/188584538/CSHTR.18911.F.EmRebLs.OldurenBalAyi.2010.D.CSHTR.com.part1.rar
http://www.wupload.com/file/188582127/CSHTR.18911.F.EmRebLs.OldurenBalAyi.2010.D.CSHTR.com.part2.rar
http://www.wupload.com/file/188582144/CSHTR.18911.F.EmRebLs.OldurenBalAyi.2010.D.CSHTR.com.part3.rar
http://www.wupload.com/file/188582059/CSHTR.18911.F.EmRebLs.OldurenBalAyi.2010.D.CSHTR.com.part4.rar
[/HIDE]







www.cshtr.com