Cuckoo

DVDRip Xvid - UnKnOwN

Language | Dublaj Dili : English
Release Date | Gösterim Tarihi : 2009
Uploaded By EmRebLs (18 Eylül 2011 )

Bu paylaşımın toplam boyutu 706 MB olup, Fileserve Bitshare Filesonic Netload Uploaded Wupload sunucularına upload edilmiştir.

Altyazı Takip Linki : http://www.turkcealtyazi.org/mov/1148779/cuckoo.html







http://www.imdb.com/title/tt1148779/



Alıntı

Cuckoo
ALTYAZI GÖNDER
LİSTEME EKLE
21 kişi bu filmi takip ediyor.
eksisozluk movieposterdb
Yönetmen:
Richard Bracewell
Ülke:
İngiltere İngiltere
Tür:
Dram | Gerilim
Rating:
imdb
5.2 (52 Oy)
Vizyon Tarihi:
25 Eylül 2009 (İngiltere)
Süre:
89 dakika
Dil:
İngilizce
Senaryo:
Richard Bracewell
Müzik:
Andrew Hewitt
Görüntü Yönetmeni:
Mark Partridge
Yapımcılar:
Richard Bracewell | Tony Bracewell | Adrian Kelly | tümü »
Görüntü:
Renkli
Firma:
Cuckoo Films | Papillon Pictures | Punk Cinema Ltd.
Web Sitesi:
Official site
Çekim Yeri:
London, England, UK
A professor becomes obsessed with his star student.




 

General
Complete name                    : Cuckoo_2010_DVDRip_Xvid_UnKnOwN.avi
Format                           : AVI
Format/Info                      : Audio Video Interleave
File size                        : 700 MiB
Duration                         : 1h 29mn
Overall bit rate                 : 1 099 Kbps
Writing application              : VirtualDubMod 1.5.4.1 (build 2178/release)
Writing library                  : VirtualDubMod build 2178/release

Video
Format                           : MPEG-4 Visual
Format profile                   : Streaming [email protected]
Format settings, BVOP            : No
Format settings, QPel            : No
Format settings, GMC             : No warppoints
Format settings, Matrix          : Custom
Codec ID                         : XVID
Codec ID/Hint                    : XviD
Duration                         : 1h 29mn
Bit rate                         : 982 Kbps
Width                            : 640 pixels
Height                           : 352 pixels
Display aspect ratio             : 16/9
Frame rate                       : 25.000 fps
Resolution                       : 24 bits
Colorimetry                      : 4:2:0
Scan type                        : Progressive
Bits/(Pixel*Frame)               : 0.174
Stream size                      : 625 MiB (89%)
Writing library                  : XviD 64

Audio
Format                           : MPEG Audio
Format version                   : Version 1
Format profile                   : Layer 3
Codec ID                         : 55
Codec ID/Hint                    : MP3
Duration                         : 1h 29mn
Bit rate mode                    : Variable
Bit rate                         : 104 Kbps
Minimum bit rate                 : 112 Kbps
Channel(s)                       : 2 channels
Sampling rate                    : 44.1 KHz
Resolution                       : 16 bits
Stream size                      : 66.4 MiB (9%)
Alignment                        : Aligned on interleaves
Interleave, duration             : 26 ms (0.65 video frame)
Interleave, preload duration     : 183 ms
Writing library                  : LAME3.98r
Encoding settings                : ABR










Bir Part Boyutu: 205 MB - Toplam Boyut: 706 MB





[HIDE]
 
http://www.fileserve.com/file/uFNwvHB/CSHTR.18911.F.EmRebLs.Cckoooo.2010.D.CSHTR.com.part1.rar
http://www.fileserve.com/file/qAdnrrY/CSHTR.18911.F.EmRebLs.Cckoooo.2010.D.CSHTR.com.part2.rar
http://www.fileserve.com/file/dCuCTam/CSHTR.18911.F.EmRebLs.Cckoooo.2010.D.CSHTR.com.part3.rar
http://www.fileserve.com/file/QZvncBC/CSHTR.18911.F.EmRebLs.Cckoooo.2010.D.CSHTR.com.part4.rar
[/HIDE]



[HIDE]
 

http://bitshare.com/files/u3grqb3s/CSHTR.18911.F.EmRebLs.Cckoooo.2010.D.CSHTR.com.part1.rar.html
http://bitshare.com/files/3k7vvyfd/CSHTR.18911.F.EmRebLs.Cckoooo.2010.D.CSHTR.com.part2.rar.html
http://bitshare.com/files/3bp0ljwa/CSHTR.18911.F.EmRebLs.Cckoooo.2010.D.CSHTR.com.part3.rar.html
http://bitshare.com/files/qabaqak1/CSHTR.18911.F.EmRebLs.Cckoooo.2010.D.CSHTR.com.part4.rar.html
[/HIDE]



[HIDE]
 
http://www.filesonic.com/file/2052191374/CSHTR.18911.F.EmRebLs.Cckoooo.2010.D.CSHTR.com.part1.rar
http://www.filesonic.com/file/2052218694/CSHTR.18911.F.EmRebLs.Cckoooo.2010.D.CSHTR.com.part2.rar
http://www.filesonic.com/file/2052219814/CSHTR.18911.F.EmRebLs.Cckoooo.2010.D.CSHTR.com.part3.rar
http://www.filesonic.com/file/2052190914/CSHTR.18911.F.EmRebLs.Cckoooo.2010.D.CSHTR.com.part4.rar
[/HIDE]



[HIDE]
 
http://www.netload.in/dateiMC2hMPGilF/CSHTR.18911.F.EmRebLs.Cckoooo.2010.D.CSHTR.com.part1.rar.htm
http://www.netload.in/dateiZYxafDF5BF/CSHTR.18911.F.EmRebLs.Cckoooo.2010.D.CSHTR.com.part2.rar.htm
http://www.netload.in/dateiv9EctC8l8m/CSHTR.18911.F.EmRebLs.Cckoooo.2010.D.CSHTR.com.part3.rar.htm
http://www.netload.in/dateifRrgcneewc/CSHTR.18911.F.EmRebLs.Cckoooo.2010.D.CSHTR.com.part4.rar.htm
[/HIDE]



[HIDE]
 
http://ul.to/5xs3qmus/CSHTR.18911.F.EmRebLs.Cckoooo.2010.D.CSHTR.com.part1.rar
http://ul.to/lraamo1z/CSHTR.18911.F.EmRebLs.Cckoooo.2010.D.CSHTR.com.part2.rar
http://ul.to/h85r00ht/CSHTR.18911.F.EmRebLs.Cckoooo.2010.D.CSHTR.com.part3.rar
http://ul.to/67hswhd3/CSHTR.18911.F.EmRebLs.Cckoooo.2010.D.CSHTR.com.part4.rar
[/HIDE]



[HIDE]
 
http://www.wupload.com/file/188576499/CSHTR.18911.F.EmRebLs.Cckoooo.2010.D.CSHTR.com.part1.rar
http://www.wupload.com/file/188576615/CSHTR.18911.F.EmRebLs.Cckoooo.2010.D.CSHTR.com.part2.rar
http://www.wupload.com/file/188576626/CSHTR.18911.F.EmRebLs.Cckoooo.2010.D.CSHTR.com.part3.rar
http://www.wupload.com/file/188576628/CSHTR.18911.F.EmRebLs.Cckoooo.2010.D.CSHTR.com.part4.rar
[/HIDE]







www.cshtr.com