Barbershop 2: Back in Business

Berber Dükkanı 2

DVDRip XviD - DiAMOND

Language | Dublaj Dili : English
Release Date | Gösterim Tarihi : 2004
Uploaded By EmRebLs (18 Eylül 2011 )

Bu paylaşımın toplam boyutu 707 MB olup, Fileserve Bitshare Filesonic Netload Uploaded Wupload sunucularına upload edilmiştir.

Altyazı Takip Linki : http://www.turkcealtyazi.org/mov/033...-business.html







http://www.imdb.com/title/tt0337579/



Alıntı

Barbershop 2: Back in Business Film Ekibi
Yönetmen
Kevin Rodney Sullivan
Senaryo
Mark Brown
Don D. Scott

Görüntü Yönetmeni
Tom Priestley Jr.

Müzik
Richard Gibbs


Oyuncu Rol
Ice Cube Calvin
Cedric the Entertainer Eddie
Sean Patrick Thomas Jimmy
Eve Terri
Troy Garity Isaac
Michael Ealy Ricky
Leonard Earl Howze Dinka
Harry Lennix Quentin Leroux
Robert Wisdom Alderman Brown
Jazsmin Lewis Jennifer
Carl Wright Checkers Fred
DeRay Davis Hustle Guy
Kenan Thompson Kenard
Queen Latifah Gina
Garcelle Beauvais Loretta (as Garcelle Beauvais-Nilon)
Barbershop 2: Back in Business Detaylar
Türkçe Adı
Berber Dükkanı 2

Yapım : 2004

Ülke : Amerika

Tür : Komedi, Dram

Süre : 106 dakika
Bilgi :İlkinden daha zengin, daha gösterişli ve daha eğlenceli bir devam filmi! Tüm esprileri yakalabilmeniz için tekrar izlemeniz gerekecek!
(L.A Weekly)

Mizah, duygu ve yorumların hoşça harmanlandığı bu sivri, usta işi devamla, Berber dükkanına Ice Cube, Cedric the entertainer ve yıldız kadroyla geri dönüyoruz.


 

General
Complete name                    : Barbershop.2.DVDRip.XviD-DiAMOND.avi
Format                           : AVI
Format/Info                      : Audio Video Interleave
File size                        : 700 MiB
Duration                         : 1h 45mn
Overall bit rate                 : 926 Kbps
Writing application              : Nandub v1.0rc2
Writing library                  : Nandub build 1852/release

Video
Format                           : MPEG-4 Visual
Format profile                   : [email protected]
Format settings, BVOP            : Yes
Format settings, QPel            : No
Format settings, GMC             : No warppoints
Format settings, Matrix          : Custom
Codec ID                         : XVID
Codec ID/Hint                    : XviD
Duration                         : 1h 45mn
Bit rate                         : 796 Kbps
Width                            : 576 pixels
Height                           : 304 pixels
Display aspect ratio             : 1.895
Frame rate                       : 23.976 fps
Resolution                       : 24 bits
Colorimetry                      : 4:2:0
Scan type                        : Progressive
Bits/(Pixel*Frame)               : 0.190
Stream size                      : 602 MiB (86%)
Writing library                  : XviD 0.0.09 (UTC 2003-03-25)

Audio
Format                           : MPEG Audio
Format version                   : Version 1
Format profile                   : Layer 3
Codec ID                         : 55
Codec ID/Hint                    : MP3
Duration                         : 1h 45mn
Bit rate mode                    : Variable
Bit rate                         : 117 Kbps
Nominal bit rate                 : 128 Kbps
Channel(s)                       : 2 channels
Sampling rate                    : 48.0 KHz
Resolution                       : 16 bits
Stream size                      : 88.5 MiB (13%)
Alignment                        : Aligned on interleaves
Interleave, duration             : 24 ms (0.58 video frame)
Interleave, preload duration     : 150 ms
Writing library                  : LAME3.90.
Encoding settings                : ABR










Bir Part Boyutu: 205 MB - Toplam Boyut: 707 MB





[HIDE]
 
http://www.fileserve.com/file/tcfUPf4/CSHTR.18911.F.EmRebLs.BrbrShp2.2004.D.CSHTR.com.part1.rar
http://www.fileserve.com/file/6e4PT7J/CSHTR.18911.F.EmRebLs.BrbrShp2.2004.D.CSHTR.com.part2.rar
http://www.fileserve.com/file/qamF9Gz/CSHTR.18911.F.EmRebLs.BrbrShp2.2004.D.CSHTR.com.part3.rar
http://www.fileserve.com/file/CXezrS5/CSHTR.18911.F.EmRebLs.BrbrShp2.2004.D.CSHTR.com.part4.rar
[/HIDE]



[HIDE]
 
http://bitshare.com/files/xdpotsxb/CSHTR.18911.F.EmRebLs.BrbrShp2.2004.D.CSHTR.com.part1.rar.html
http://bitshare.com/files/pik3ihma/CSHTR.18911.F.EmRebLs.BrbrShp2.2004.D.CSHTR.com.part2.rar.html
http://bitshare.com/files/1dajrkk7/CSHTR.18911.F.EmRebLs.BrbrShp2.2004.D.CSHTR.com.part3.rar.html
http://bitshare.com/files/9supbqml/CSHTR.18911.F.EmRebLs.BrbrShp2.2004.D.CSHTR.com.part4.rar.html
[/HIDE]



[HIDE]
 
http://www.filesonic.com/file/2052143504/CSHTR.18911.F.EmRebLs.BrbrShp2.2004.D.CSHTR.com.part1.rar
http://www.filesonic.com/file/2052166374/CSHTR.18911.F.EmRebLs.BrbrShp2.2004.D.CSHTR.com.part2.rar
http://www.filesonic.com/file/2052648924/CSHTR.18911.F.EmRebLs.BrbrShp2.2004.D.CSHTR.com.part3.rar
http://www.filesonic.com/file/2052166544/CSHTR.18911.F.EmRebLs.BrbrShp2.2004.D.CSHTR.com.part4.rar
[/HIDE]



[HIDE]
 
http://www.netload.in/dateil1ot4SDn2G/CSHTR.18911.F.EmRebLs.BrbrShp2.2004.D.CSHTR.com.part1.rar.htm
http://www.netload.in/dateimVFEZChLK2/CSHTR.18911.F.EmRebLs.BrbrShp2.2004.D.CSHTR.com.part2.rar.htm
http://www.netload.in/dateiDgw7QdXUtf/CSHTR.18911.F.EmRebLs.BrbrShp2.2004.D.CSHTR.com.part3.rar.htm
http://www.netload.in/dateiWxP4mfWSJ6/CSHTR.18911.F.EmRebLs.BrbrShp2.2004.D.CSHTR.com.part4.rar.htm
[/HIDE]



[HIDE]
 
http://ul.to/0y1cvbf4/CSHTR.18911.F.EmRebLs.BrbrShp2.2004.D.CSHTR.com.part1.rar
http://ul.to/nfpm59nh/CSHTR.18911.F.EmRebLs.BrbrShp2.2004.D.CSHTR.com.part2.rar
http://ul.to/4ggxdlwa/CSHTR.18911.F.EmRebLs.BrbrShp2.2004.D.CSHTR.com.part3.rar
http://ul.to/71ptlsb2/CSHTR.18911.F.EmRebLs.BrbrShp2.2004.D.CSHTR.com.part4.rar
[/HIDE]



[HIDE]
 
http://www.wupload.com/file/188571786/CSHTR.18911.F.EmRebLs.BrbrShp2.2004.D.CSHTR.com.part1.rar
http://www.wupload.com/file/188574236/CSHTR.18911.F.EmRebLs.BrbrShp2.2004.D.CSHTR.com.part2.rar
http://www.wupload.com/file/188574260/CSHTR.18911.F.EmRebLs.BrbrShp2.2004.D.CSHTR.com.part3.rar
http://www.wupload.com/file/188571783/CSHTR.18911.F.EmRebLs.BrbrShp2.2004.D.CSHTR.com.part4.rar
[/HIDE]







www.cshtr.com