Ninjas vs. Vampires

DVDRiP XViD - TASTE

Language | Dublaj Dili : English
Release Date | Gösterim Tarihi : 2010
Uploaded By EmRebLs (18 Eylül 2011 )

Bu paylaşımın toplam boyutu 704 MB olup, Fileserve Bitshare Filesonic Netload Uploaded Wupload sunucularına upload edilmiştir.

Altyazı Takip Linki : http://www.turkcealtyazi.org/mov/174...-vampires.html







http://www.imdb.com/title/tt1748134/



Alıntı

Yapım:
2010 ~ ABD
Tür:
Aksiyon, Komedi, Korku
Yönetmen:
Justin Timpane, Gary Ugarek
Oyuncular:
Carla Okouchi, Cory Okouchi, Dan Guy, Daniel Ross ı, Daniel Mascarello, Devon Marie Burt, Jay Saunders, Kurt Skarstedt, Liz Christmas, Melissa Mcconnell, P.j. Megaw, Suzanne Glover, Will Stendeback
Senaryo:
Daniel Ross
Yapımcı:
Daniel Ross ı, Cory Okouchi, Justin Timpane, Brian Anderson, Daniel Mascarello
Süre:
1 saat 29 dk
Bilgi :Ninjas battle Vampires for the fate of the world in this all new Action-Horror-Comedy from the creators of 2010's cult smash, "Ninjas Vs Zombies"! Moments after down-on-his-luck Aaron is rejected by the girl of his dreams, they both are attacked by blood sucking VAMPIRES. Driven to save her, Aaron tracks down the mysterious NINJAS, who wage a nightly war against the forces of darkness. Now, as the Vampire overlord Seth plots to destroy Mankind, Aaron has only one choice - join the ninjas, save the world, and get the girl... or die trying. Sexy, funny, shocking, and fun, NINJAS VS VAMPIRES delivers an action-packed comedic adventure unlike any other!


 

General
Complete name                    : ninjas.vs.vampires.avi
Format                           : AVI
Format/Info                      : Audio Video Interleave
File size                        : 698 MiB
Duration                         : 1h 28mn
Overall bit rate                 : 1 107 Kbps
Writing application              : VirtualDubMod 1.5.10.2 (build 2540/release)
Writing library                  : VirtualDubMod build 2540/release

Video
Format                           : MPEG-4 Visual
Format profile                   : Streaming [email protected]
Format settings, BVOP            : Yes
Format settings, QPel            : No
Format settings, GMC             : No warppoints
Format settings, Matrix          : Default
Muxing mode                      : Packed bitstream
Codec ID                         : XVID
Codec ID/Hint                    : XviD
Duration                         : 1h 28mn
Bit rate                         : 905 Kbps
Width                            : 624 pixels
Height                           : 272 pixels
Display aspect ratio             : 2.25
Frame rate                       : 25.000 fps
Resolution                       : 24 bits
Colorimetry                      : 4:2:0
Scan type                        : Progressive
Bits/(Pixel*Frame)               : 0.213
Stream size                      : 571 MiB (82%)
Writing library                  : XviD 1.2.1 (UTC 2008-12-04)

Audio
Format                           : AC-3
Format/Info                      : Audio Coding 3
Codec ID                         : 2000
Duration                         : 1h 28mn
Bit rate mode                    : Constant
Bit rate                         : 192 Kbps
Channel(s)                       : 2 channels
Channel positions                : L R
Sampling rate                    : 48.0 KHz
Stream size                      : 121 MiB (17%)
Alignment                        : Split accross interleaves
Interleave, duration             : 40 ms (1.00 video frame)
Interleave, preload duration     : 500 ms










Bir Part Boyutu: 205 MB - Toplam Boyut: 704 MB





[HIDE]
 
http://www.fileserve.com/file/d58Crqq/CSHTR.18911.F.EmRebLs.NncaVamp.2010.D.CSHTR.com.part1.rar
http://www.fileserve.com/file/hQjAvZZ/CSHTR.18911.F.EmRebLs.NncaVamp.2010.D.CSHTR.com.part2.rar
http://www.fileserve.com/file/cwfMd52/CSHTR.18911.F.EmRebLs.NncaVamp.2010.D.CSHTR.com.part3.rar
http://www.fileserve.com/file/fyXJs2c/CSHTR.18911.F.EmRebLs.NncaVamp.2010.D.CSHTR.com.part4.rar
[/HIDE]



[HIDE]
 

http://bitshare.com/files/2b0pgydu/CSHTR.18911.F.EmRebLs.NncaVamp.2010.D.CSHTR.com.part1.rar.html
http://bitshare.com/files/kbver3ob/CSHTR.18911.F.EmRebLs.NncaVamp.2010.D.CSHTR.com.part2.rar.html
http://bitshare.com/files/i22el9g6/CSHTR.18911.F.EmRebLs.NncaVamp.2010.D.CSHTR.com.part3.rar.html
http://bitshare.com/files/uhkzs9dr/CSHTR.18911.F.EmRebLs.NncaVamp.2010.D.CSHTR.com.part4.rar.html
[/HIDE]



[HIDE]
 
http://www.filesonic.com/file/2052245504/CSHTR.18911.F.EmRebLs.NncaVamp.2010.D.CSHTR.com.part1.rar
http://www.filesonic.com/file/2052685244/CSHTR.18911.F.EmRebLs.NncaVamp.2010.D.CSHTR.com.part2.rar
http://www.filesonic.com/file/2052272214/CSHTR.18911.F.EmRebLs.NncaVamp.2010.D.CSHTR.com.part3.rar
http://www.filesonic.com/file/2052219834/CSHTR.18911.F.EmRebLs.NncaVamp.2010.D.CSHTR.com.part4.rar
[/HIDE]



[HIDE]
 
http://www.netload.in/datei4B9cwHMrAH/CSHTR.18911.F.EmRebLs.NncaVamp.2010.D.CSHTR.com.part1.rar.htm
http://www.netload.in/dateiwr7LfaWXmI/CSHTR.18911.F.EmRebLs.NncaVamp.2010.D.CSHTR.com.part2.rar.htm
http://www.netload.in/dateitHzmnXSgYk/CSHTR.18911.F.EmRebLs.NncaVamp.2010.D.CSHTR.com.part3.rar.htm
http://www.netload.in/dateiwgnrt26SS8/CSHTR.18911.F.EmRebLs.NncaVamp.2010.D.CSHTR.com.part4.rar.htm
[/HIDE]



[HIDE]
 
http://ul.to/iarh2u6v/CSHTR.18911.F.EmRebLs.NncaVamp.2010.D.CSHTR.com.part1.rar
http://ul.to/cwgprh68/CSHTR.18911.F.EmRebLs.NncaVamp.2010.D.CSHTR.com.part2.rar
http://ul.to/ozj5yti8/CSHTR.18911.F.EmRebLs.NncaVamp.2010.D.CSHTR.com.part3.rar
http://ul.to/jynxqzq1/CSHTR.18911.F.EmRebLs.NncaVamp.2010.D.CSHTR.com.part4.rar
[/HIDE]



[HIDE]
 
http://www.wupload.com/file/188582094/CSHTR.18911.F.EmRebLs.NncaVamp.2010.D.CSHTR.com.part1.rar
http://www.wupload.com/file/188584530/CSHTR.18911.F.EmRebLs.NncaVamp.2010.D.CSHTR.com.part2.rar
http://www.wupload.com/file/188579453/CSHTR.18911.F.EmRebLs.NncaVamp.2010.D.CSHTR.com.part3.rar
http://www.wupload.com/file/188579427/CSHTR.18911.F.EmRebLs.NncaVamp.2010.D.CSHTR.com.part4.rar
[/HIDE]







www.cshtr.com