Madso's War

DVDRip XviD AC3 – ViSUALiSE

Language | Dublaj Dili : English
Release Date | Gösterim Tarihi : 2010
Uploaded By EmRebLs (16 Eylül 2011 )

Bu paylaşımın toplam boyutu 953 MB olup, Fileserve Bitshare Filesonic Netload Uploaded Wupload sunucularına upload edilmiştir.

Altyazı Takip Linki : http://www.turkcealtyazi.org/mov/140...adsos-war.html







http://www.imdb.com/title/tt1401241/



Alıntı

Yapım:
2010 ~ ABD
Tür:
Suç
Yönetmen:
Walter Hill
Oyuncular:
Matthew Marsden, Jerrell Lee, Charlie Alejandro, Kevin Chapman, Todd Bryant
Senaryo:
Christopher Bertolini
Yapımcı:
Hudson Hickman, Christopher Bertolini
Müzik:
Amy Marie Beauchamp
Süre:
1 saat 30 dk
A power vacuum develops when the top mob boss flees a federal indictment.




 

General
Complete name                    : Madsos.War.2010.DvDRiP.XviD.AC3-ViSUALiSE
Format                           : AVI
Format/Info                      : Audio Video Interleave
File size                        : 953 MiB
Duration                         : 1h 8mn
Overall bit rate                 : 1 940 Kbps

Video
Format                           : MPEG-4 Visual
Format profile                   : Streaming [email protected]
Format settings, BVOP            : Yes
Format settings, QPel            : No
Format settings, GMC             : No warppoints
Format settings, Matrix          : Default
Codec ID                         : XVID
Codec ID/Hint                    : XviD
Duration                         : 1h 8mn
Bit rate                         : 1 800 Kbps
Width                            : 720 pixels
Height                           : 480 pixels
Display aspect ratio             : 16/9
Frame rate                       : 29.970 fps
Standard                         : NTSC
Resolution                       : 24 bits
Colorimetry                      : 4:2:0
Scan type                        : Progressive
Bits/(Pixel*Frame)               : 0.174
Stream size                      : 884 MiB (93%)
Writing library                  : XviD 63

Audio
Format                           : AC-3
Format/Info                      : Audio Coding 3
Codec ID                         : 2000
Duration                         : 1h 8mn
Bit rate mode                    : Constant
Bit rate                         : 128 Kbps
Channel(s)                       : 6 channels
Channel positions                : Front: L C R, Surround: L R, LFE
Sampling rate                    : 48.0 KHz
Resolution                       : 16 bits
Stream size                      : 62.9 MiB (7%)
Alignment                        : Aligned on interleaves
Interleave, duration             : 32 ms (0.96 video frame)










Bir Part Boyutu: 205 MB - Toplam Boyut: 953 MB





[HIDE]
 
http://www.fileserve.com/file/cyhErUz/CSHTR.16911.F.EmRebLs.MdssSvas.2010.D.CSHTR.com.part1.rar
http://www.fileserve.com/file/98MKSMx/CSHTR.16911.F.EmRebLs.MdssSvas.2010.D.CSHTR.com.part2.rar
http://www.fileserve.com/file/USQQB8D/CSHTR.16911.F.EmRebLs.MdssSvas.2010.D.CSHTR.com.part3.rar
http://www.fileserve.com/file/h4eBcJf/CSHTR.16911.F.EmRebLs.MdssSvas.2010.D.CSHTR.com.part4.rar
http://www.fileserve.com/file/kUYNuf3/CSHTR.16911.F.EmRebLs.MdssSvas.2010.D.CSHTR.com.part5.rar
[/HIDE]



[HIDE]
 
http://bitshare.com/files/gxlj081x/CSHTR.16911.F.EmRebLs.MdssSvas.2010.D.CSHTR.com.part1.rar.html
http://bitshare.com/files/vwaaopq9/CSHTR.16911.F.EmRebLs.MdssSvas.2010.D.CSHTR.com.part2.rar.html
http://bitshare.com/files/odzj2prh/CSHTR.16911.F.EmRebLs.MdssSvas.2010.D.CSHTR.com.part3.rar.html
http://bitshare.com/files/qanmt250/CSHTR.16911.F.EmRebLs.MdssSvas.2010.D.CSHTR.com.part4.rar.html
http://bitshare.com/files/639me41o/CSHTR.16911.F.EmRebLs.MdssSvas.2010.D.CSHTR.com.part5.rar.html
[/HIDE]



[HIDE]
 
http://www.filesonic.com/file/2014213624/CSHTR.16911.F.EmRebLs.MdssSvas.2010.D.CSHTR.com.part1.rar
http://www.filesonic.com/file/2014212894/CSHTR.16911.F.EmRebLs.MdssSvas.2010.D.CSHTR.com.part2.rar
http://www.filesonic.com/file/2014217304/CSHTR.16911.F.EmRebLs.MdssSvas.2010.D.CSHTR.com.part3.rar
http://www.filesonic.com/file/2014217494/CSHTR.16911.F.EmRebLs.MdssSvas.2010.D.CSHTR.com.part4.rar
http://www.filesonic.com/file/2014217514/CSHTR.16911.F.EmRebLs.MdssSvas.2010.D.CSHTR.com.part5.rar
[/HIDE]



[HIDE]
 
http://www.netload.in/dateixR1ftm5uXB/CSHTR.16911.F.EmRebLs.MdssSvas.2010.D.CSHTR.com.part1.rar.htm
http://www.netload.in/dateim8CQ7Uq3Zc/CSHTR.16911.F.EmRebLs.MdssSvas.2010.D.CSHTR.com.part2.rar.htm
http://www.netload.in/dateio0m0MXo9zz/CSHTR.16911.F.EmRebLs.MdssSvas.2010.D.CSHTR.com.part3.rar.htm
http://www.netload.in/datei2qyOzXx4WS/CSHTR.16911.F.EmRebLs.MdssSvas.2010.D.CSHTR.com.part4.rar.htm
http://www.netload.in/dateicgRwVDGR8K/CSHTR.16911.F.EmRebLs.MdssSvas.2010.D.CSHTR.com.part5.rar.htm
[/HIDE]



[HIDE]
 
http://ul.to/7eqq7hqv/CSHTR.16911.F.EmRebLs.MdssSvas.2010.D.CSHTR.com.part1.rar
http://ul.to/n7jibnbc/CSHTR.16911.F.EmRebLs.MdssSvas.2010.D.CSHTR.com.part2.rar
http://ul.to/0cjkezz0/CSHTR.16911.F.EmRebLs.MdssSvas.2010.D.CSHTR.com.part3.rar
http://ul.to/7qqlr8va/CSHTR.16911.F.EmRebLs.MdssSvas.2010.D.CSHTR.com.part4.rar
http://ul.to/odr5e4fw/CSHTR.16911.F.EmRebLs.MdssSvas.2010.D.CSHTR.com.part5.rar
[/HIDE]



[HIDE]
 
http://www.wupload.com/file/178577301/CSHTR.16911.F.EmRebLs.MdssSvas.2010.D.CSHTR.com.part1.rar
http://www.wupload.com/file/178577306/CSHTR.16911.F.EmRebLs.MdssSvas.2010.D.CSHTR.com.part2.rar
http://www.wupload.com/file/178581439/CSHTR.16911.F.EmRebLs.MdssSvas.2010.D.CSHTR.com.part3.rar
http://www.wupload.com/file/178581437/CSHTR.16911.F.EmRebLs.MdssSvas.2010.D.CSHTR.com.part4.rar
http://www.wupload.com/file/178581428/CSHTR.16911.F.EmRebLs.MdssSvas.2010.D.CSHTR.com.part5.rar
[/HIDE]







www.cshtr.com