Phasma Ex Machina

DVDRip XviD - aAF

Language | Dublaj Dili : English
Release Date | Gösterim Tarihi : 2010
Uploaded By EmRebLs (12 Eylül 2011 )

Bu paylaşımın toplam boyutu 699 MB olup, Fileserve Bitshare Filesonic Netload Uploaded Wupload sunucularına upload edilmiştir.

Altyazı Takip Linki : http://www.turkcealtyazi.org/mov/130...x-machina.html







http://www.imdb.com/title/tt1303782/



Alıntı

Yapım:
2010 ~ ABD
Tür:
Bilim Kurgu
Yönetmen:
Matt Osterman
Oyuncular:
Emily Fradenburgh, Sasha Andreev, Gary David Keast, Jim Westcott, Matthew Feeney, Max Hauser
Senaryo:
Matt Osterman
Yapımcı:
Jon Maichel Thomas, Jennifer Kramer
Görüntü Yönetmeni:
Adam Honzl
Müzik:
Wojciech Golczewski
Filmin Websitesi:
www.phasmamovie.com
Filmin Özeti

Ölmüş bir sevdiğinizi geri getirmek istermiydiniz?,genç Cody (Sasha Andreev) ebeveynlerin ölümünden sonra kardeşi James ile birlikte ölümle yaşam arasında köprü vazifesi görecek yani öbür dünyadan yaşama geçebilecek üzerine bir makine icat ederler.Bu makine doğa üstü karanlık bir bilim olan reenkarnasyon yani yeniden diriliş vazifesi görecektir.




 

General
Complete name                    : Phasma.Ex.Machina.2010.DVDRip.XviD-aAF.vip.cshtr.com.avi
Format                           : AVI
Format/Info                      : Audio Video Interleave
File size                        : 700 MiB
Duration                         : 1h 26mn
Overall bit rate                 : 1 133 Kbps
Writing application              : VirtualDubMod 1.5.10.2 (build 2540/release)
Writing library                  : VirtualDubMod build 2540/release

Video
Format                           : MPEG-4 Visual
Format profile                   : Streaming [email protected]
Format settings, BVOP            : Yes
Format settings, QPel            : No
Format settings, GMC             : No warppoints
Format settings, Matrix          : Default
Codec ID                         : XVID
Codec ID/Hint                    : XviD
Duration                         : 1h 26mn
Bit rate                         : 988 Kbps
Width                            : 624 pixels
Height                           : 352 pixels
Display aspect ratio             : 16/9
Frame rate                       : 25.000 fps
Resolution                       : 24 bits
Colorimetry                      : 4:2:0
Scan type                        : Progressive
Bits/(Pixel*Frame)               : 0.180
Stream size                      : 610 MiB (87%)
Writing library                  : XviD 64

Audio
Format                           : MPEG Audio
Format version                   : Version 1
Format profile                   : Layer 3
Codec ID                         : 55
Codec ID/Hint                    : MP3
Duration                         : 1h 26mn
Bit rate mode                    : Variable
Bit rate                         : 133 Kbps
Nominal bit rate                 : 128 Kbps
Channel(s)                       : 2 channels
Sampling rate                    : 48.0 KHz
Resolution                       : 16 bits
Stream size                      : 81.8 MiB (12%)
Alignment                        : Aligned on interleaves
Interleave, duration             : 24 ms (0.60 video frame)
Interleave, preload duration     : 476 ms
Writing library                  : LAME3.90.
Encoding settings                : ABR










Bir Part Boyutu: 205 MB - Toplam Boyut: 699 MB





[HIDE]
 
http://www.fileserve.com/file/p83Fa2v/CSHTR.12911.F.EmRebLs.PhExM.2010.D.CSHTR.com.part1.rar
http://www.fileserve.com/file/wqjNzbk/CSHTR.12911.F.EmRebLs.PhExM.2010.D.CSHTR.com.part2.rar
http://www.fileserve.com/file/S5pXUKu/CSHTR.12911.F.EmRebLs.PhExM.2010.D.CSHTR.com.part3.rar
http://www.fileserve.com/file/JAa6q8A/CSHTR.12911.F.EmRebLs.PhExM.2010.D.CSHTR.com.part4.rar
[/HIDE]



[HIDE]
 
http://bitshare.com/files/8all9khv/CSHTR.12911.F.EmRebLs.PhExM.2010.D.CSHTR.com.part1.rar.html
http://bitshare.com/files/k6kthx5r/CSHTR.12911.F.EmRebLs.PhExM.2010.D.CSHTR.com.part2.rar.html
http://bitshare.com/files/uszbo8nq/CSHTR.12911.F.EmRebLs.PhExM.2010.D.CSHTR.com.part3.rar.html
http://bitshare.com/files/sy9oyvxp/CSHTR.12911.F.EmRebLs.PhExM.2010.D.CSHTR.com.part4.rar.html
[/HIDE]



[HIDE]
 
http://www.filesonic.com/file/1969779164/CSHTR.12911.F.EmRebLs.PhExM.2010.D.CSHTR.com.part1.rar
http://www.filesonic.com/file/1969779184/CSHTR.12911.F.EmRebLs.PhExM.2010.D.CSHTR.com.part2.rar
http://www.filesonic.com/file/1969861744/CSHTR.12911.F.EmRebLs.PhExM.2010.D.CSHTR.com.part3.rar
http://www.filesonic.com/file/1969780244/CSHTR.12911.F.EmRebLs.PhExM.2010.D.CSHTR.com.part4.rar
[/HIDE]



[HIDE]
 
http://www.netload.in/dateifOFOXeOrAO/CSHTR.12911.F.EmRebLs.PhExM.2010.D.CSHTR.com.part1.rar.htm
http://www.netload.in/dateiG5MAQfAosw/CSHTR.12911.F.EmRebLs.PhExM.2010.D.CSHTR.com.part2.rar.htm
http://www.netload.in/dateifSGjYI5Jvq/CSHTR.12911.F.EmRebLs.PhExM.2010.D.CSHTR.com.part3.rar.htm
http://www.netload.in/dateiZl1DRXz6Zr/CSHTR.12911.F.EmRebLs.PhExM.2010.D.CSHTR.com.part4.rar.htm
[/HIDE]



[HIDE]
 
http://ul.to/7gb5533l/CSHTR.12911.F.EmRebLs.PhExM.2010.D.CSHTR.com.part1.rar
http://ul.to/ur9czwd5/CSHTR.12911.F.EmRebLs.PhExM.2010.D.CSHTR.com.part2.rar
http://ul.to/avrnkwzk/CSHTR.12911.F.EmRebLs.PhExM.2010.D.CSHTR.com.part3.rar
http://ul.to/actty5cb/CSHTR.12911.F.EmRebLs.PhExM.2010.D.CSHTR.com.part4.rar
[/HIDE]



[HIDE]
 
http://www.wupload.com/file/166586586/CSHTR.12911.F.EmRebLs.PhExM.2010.D.CSHTR.com.part1.rar
http://www.wupload.com/file/166586905/CSHTR.12911.F.EmRebLs.PhExM.2010.D.CSHTR.com.part2.rar
http://www.wupload.com/file/166583602/CSHTR.12911.F.EmRebLs.PhExM.2010.D.CSHTR.com.part3.rar
http://www.wupload.com/file/166581453/CSHTR.12911.F.EmRebLs.PhExM.2010.D.CSHTR.com.part4.rar
[/HIDE]







www.cshtr.com