emlaklik & sedatyucel

Melancholia | 2008 | DVDRip | FS NL FSC | Download | iNDiR

Melancholia DVDRip XViD - DOCUMENT Language | Dublaj Dili : English Release Date | Gösterim Tarihi : 2008 Uploaded By EmRebLs (12 Eylül 2011 ) Bu paylaşımın toplam boyutu 699 MB olup, Fileserve Bitshare Filesonic Netload Uploaded Wupload sunucularına upload edilmiştir.

Bu konu 9233 kez görüntülendi ve 1 yorum aldı ...

    Konuyu değerlendir: Melancholia | 2008 | DVDRip | FS NL FSC | Download | iNDiR

    5 üzerinden | Toplam: 0 kişi oyladı ve 9233 kez incelendi.


Toplam 2 adet sonuctan sayfa basi 1 ile 2 arasi kadar sonuc gösteriliyor
  1. #1

    Dvdrip Melancholia | 2008 | DVDRip | FS NL FSC | Download | iNDiR

    Melancholia

    DVDRip XViD - DOCUMENT

    Language | Dublaj Dili : English
    Release Date | Gösterim Tarihi : 2008
    Uploaded By EmRebLs (12 Eylül 2011 )

    Bu paylaşımın toplam boyutu 699 MB olup, Fileserve Bitshare Filesonic Netload Uploaded Wupload sunucularına upload edilmiştir.

    Altyazı Takip Linki : http://www.turkcealtyazi.org/mov/126...lancholia.html







    http://www.imdb.com/title/tt1269566/



    Alıntı

    Melancholia Film Ekibi
    Yönetmen
    Lav Diaz
    Senaryo
    Lav Diaz

    Görüntü Yönetmeni
    Lav Diaz

    Müzik
    The Brockas
    Lav Diaz


    Oyuncu Rol
    Raul Arellano
    Angeli Bayani
    Soliman Cruz
    Perry Dizon
    Dante Perez
    Roeder (as Roeder Camanag)
    Melancholia Detaylar
    Yapım : 2008

    Ülke : Filipinler

    Tür : Dram
    Three people engage in a strange therapy to get away from their agonies.




     
    
    General
    Complete name                    : melancholia.2007.dvdrip.xvid-document.vip.cshtr.com.avi
    Format                           : AVI
    Format/Info                      : Audio Video Interleave
    File size                        : 699 MiB
    Duration                         : 1h 29mn
    Overall bit rate                 : 1 086 Kbps
    Writing application              : VirtualDubMod 1.5.10.2 (build 2540/release)
    Writing library                  : VirtualDubMod build 2540/release
    
    Video
    Format                           : MPEG-4 Visual
    Format profile                   : Streaming [email protected]
    Format settings, BVOP            : Yes
    Format settings, QPel            : No
    Format settings, GMC             : No warppoints
    Format settings, Matrix          : Default
    Codec ID                         : XVID
    Codec ID/Hint                    : XviD
    Duration                         : 1h 29mn
    Bit rate                         : 907 Kbps
    Width                            : 640 pixels
    Height                           : 400 pixels
    Display aspect ratio             : 1.600
    Frame rate                       : 25.000 fps
    Resolution                       : 24 bits
    Colorimetry                      : 4:2:0
    Scan type                        : Progressive
    Bits/(Pixel*Frame)               : 0.142
    Stream size                      : 584 MiB (84%)
    Writing library                  : XviD 1.0.3 (UTC 2004-12-20)
    
    Audio
    Format                           : MPEG Audio
    Format version                   : Version 1
    Format profile                   : Layer 3
    Codec ID                         : 55
    Codec ID/Hint                    : MP3
    Duration                         : 1h 29mn
    Bit rate mode                    : Variable
    Bit rate                         : 166 Kbps
    Minimum bit rate                 : 96.0 Kbps
    Channel(s)                       : 2 channels
    Sampling rate                    : 48.0 KHz
    Resolution                       : 16 bits
    Stream size                      : 107 MiB (15%)
    Alignment                        : Aligned on interleaves
    Interleave, duration             : 24 ms (0.60 video frame)
    Interleave, preload duration     : 476 ms
    Writing library                  : LAME3.95 
    Encoding settings                : VBR (mtrh)
    










    Bir Part Boyutu: 205 MB - Toplam Boyut: 699 MB





    [HIDE]
     
    http://www.fileserve.com/file/nRcPSjU/CSHTR.12911.F.EmRebLs.Melnkli.2007.D.CSHTR.com.part1.rar
    http://www.fileserve.com/file/mr3xWXg/CSHTR.12911.F.EmRebLs.Melnkli.2007.D.CSHTR.com.part2.rar
    http://www.fileserve.com/file/KtGuFwx/CSHTR.12911.F.EmRebLs.Melnkli.2007.D.CSHTR.com.part3.rar
    http://www.fileserve.com/file/dx3ndMr/CSHTR.12911.F.EmRebLs.Melnkli.2007.D.CSHTR.com.part4.rar
    [/HIDE]



    [HIDE]
     
    http://bitshare.com/files/m8wbksx4/CSHTR.12911.F.EmRebLs.Melnkli.2007.D.CSHTR.com.part1.rar.html
    http://bitshare.com/files/o9h38zbl/CSHTR.12911.F.EmRebLs.Melnkli.2007.D.CSHTR.com.part2.rar.html
    http://bitshare.com/files/9jpn5ynn/CSHTR.12911.F.EmRebLs.Melnkli.2007.D.CSHTR.com.part3.rar.html
    http://bitshare.com/files/42ctyqyx/CSHTR.12911.F.EmRebLs.Melnkli.2007.D.CSHTR.com.part4.rar.html
    [/HIDE]



    [HIDE]
     
    http://www.filesonic.com/file/1969774764/CSHTR.12911.F.EmRebLs.Melnkli.2007.D.CSHTR.com.part1.rar
    http://www.filesonic.com/file/1969774774/CSHTR.12911.F.EmRebLs.Melnkli.2007.D.CSHTR.com.part2.rar
    http://www.filesonic.com/file/1969774804/CSHTR.12911.F.EmRebLs.Melnkli.2007.D.CSHTR.com.part3.rar
    http://www.filesonic.com/file/1969774624/CSHTR.12911.F.EmRebLs.Melnkli.2007.D.CSHTR.com.part4.rar
    [/HIDE]



    [HIDE]
     
    http://www.netload.in/dateiG5yE074QUX/CSHTR.12911.F.EmRebLs.Melnkli.2007.D.CSHTR.com.part1.rar.htm
    http://www.netload.in/dateix7ZcncSHfi/CSHTR.12911.F.EmRebLs.Melnkli.2007.D.CSHTR.com.part2.rar.htm
    http://www.netload.in/dateiOgVHahiQXK/CSHTR.12911.F.EmRebLs.Melnkli.2007.D.CSHTR.com.part3.rar.htm
    http://www.netload.in/dateitoYXNzqcbd/CSHTR.12911.F.EmRebLs.Melnkli.2007.D.CSHTR.com.part4.rar.htm
    [/HIDE]



    [HIDE]
     
    http://ul.to/8u3ivrk9/CSHTR.12911.F.EmRebLs.Melnkli.2007.D.CSHTR.com.part1.rar
    http://ul.to/zb9jtdht/CSHTR.12911.F.EmRebLs.Melnkli.2007.D.CSHTR.com.part2.rar
    http://ul.to/mtsegptu/CSHTR.12911.F.EmRebLs.Melnkli.2007.D.CSHTR.com.part3.rar
    http://ul.to/2ow8vasg/CSHTR.12911.F.EmRebLs.Melnkli.2007.D.CSHTR.com.part4.rar
    [/HIDE]



    [HIDE]
     
    http://www.wupload.com/file/166579238/CSHTR.12911.F.EmRebLs.Melnkli.2007.D.CSHTR.com.part1.rar
    http://www.wupload.com/file/166579182/CSHTR.12911.F.EmRebLs.Melnkli.2007.D.CSHTR.com.part2.rar
    http://www.wupload.com/file/166579183/CSHTR.12911.F.EmRebLs.Melnkli.2007.D.CSHTR.com.part3.rar
    http://www.wupload.com/file/166577112/CSHTR.12911.F.EmRebLs.Melnkli.2007.D.CSHTR.com.part4.rar
    [/HIDE]







    www.cshtr.com


    westset bunu beğendi.

  2. #2

    Standart

    Teşekkürler