Somebody Help Me 2

DvDRip XviD Feel-Free

Language | Dublaj Dili : English
Release Date | Gösterim Tarihi : 2010
Uploaded By EmRebLs (12 Eylül 2011 )

Bu paylaşımın toplam boyutu 744 MB olup, Fileserve Bitshare Filesonic Netload Uploaded Wupload sunucularına upload edilmiştir.

Altyazı Takip Linki : http://www.turkcealtyazi.org/mov/176...help-me-2.html







http://www.imdb.com/title/tt1760998/



Alıntı

Yönetmen:
Chris Stokes
Ülke:
Amerika Amerika
Tür:
Korku | Gizem | Gerilim
Rating:
imdb
2.9 (28 Oy)
Süre:
74 dakika
Dil:
İngilizce
Senaryo:
Chris Stokes
Müzik:
Michael J. Leslie
Görüntü Yönetmeni:
Miko Dannels
Yapımcılar:
Sharif Ahmed | Matt Hillyer | Jerome Jones | tümü »
Firma:
Christopher B. Stokes Films
Web Sitesi:
Official MySpace
Brendan and Darryl have both moved on with their lives following the events at the cabin in the woods; not unscathed however. Coming up on the anniversary, Brendan is still having nightmares that he feels will come true at any moment. His worse fears come to life when his wife and niece don't return home one night.


 

General
Complete name                    : Somebody.Help.Me.2.2010.DvDRip.XviD.Feel-Free.vip.cshtr.com.avi
Format                           : AVI
Format/Info                      : Audio Video Interleave
File size                        : 744 MiB
Duration                         : 1h 25mn
Overall bit rate                 : 1 211 Kbps
Writing application              : VirtualDubMod 1.5.10.2 (build 2540/release)
Writing library                  : VirtualDubMod build 2540/release

Video
Format                           : MPEG-4 Visual
Format profile                   : Streaming [email protected]
Format settings, BVOP            : Yes
Format settings, QPel            : No
Format settings, GMC             : No warppoints
Format settings, Matrix          : Default
Codec ID                         : XVID
Codec ID/Hint                    : XviD
Duration                         : 1h 25mn
Bit rate                         : 976 Kbps
Width                            : 640 pixels
Height                           : 360 pixels
Display aspect ratio             : 16/9
Frame rate                       : 29.970 fps
Resolution                       : 24 bits
Colorimetry                      : 4:2:0
Scan type                        : Progressive
Bits/(Pixel*Frame)               : 0.141
Stream size                      : 599 MiB (81%)
Writing library                  : XviD 1.2.1 (UTC 2008-12-04)

Audio
Format                           : AC-3
Format/Info                      : Audio Coding 3
Codec ID                         : 2000
Duration                         : 1h 25mn
Bit rate mode                    : Constant
Bit rate                         : 224 Kbps
Channel(s)                       : 2 channels
Channel positions                : L R
Sampling rate                    : 48.0 KHz
Stream size                      : 138 MiB (18%)
Alignment                        : Aligned on interleaves
Interleave, duration             : 33 ms (1.00 video frame)
Interleave, preload duration     : 512 ms










Bir Part Boyutu: 205 MB - Toplam Boyut: 744 MB





[HIDE]
 
http://www.fileserve.com/file/4AhqrSU/CSHTR.12911.F.EmRebLs.BiriYrdmEtsin2.2010.D.CSHTR.com.part1.rar
http://www.fileserve.com/file/DJeqxFZ/CSHTR.12911.F.EmRebLs.BiriYrdmEtsin2.2010.D.CSHTR.com.part2.rar
http://www.fileserve.com/file/fxeAdRR/CSHTR.12911.F.EmRebLs.BiriYrdmEtsin2.2010.D.CSHTR.com.part3.rar
http://www.fileserve.com/file/2Eu8za6/CSHTR.12911.F.EmRebLs.BiriYrdmEtsin2.2010.D.CSHTR.com.part4.rar
[/HIDE]



[HIDE]
 
http://bitshare.com/files/2bxrwey2/CSHTR.12911.F.EmRebLs.BiriYrdmEtsin2.2010.D.CSHTR.com.part1.rar.html
http://bitshare.com/files/km9we99p/CSHTR.12911.F.EmRebLs.BiriYrdmEtsin2.2010.D.CSHTR.com.part2.rar.html
http://bitshare.com/files/nd1cjpu8/CSHTR.12911.F.EmRebLs.BiriYrdmEtsin2.2010.D.CSHTR.com.part3.rar.html
http://bitshare.com/files/yro0w0kl/CSHTR.12911.F.EmRebLs.BiriYrdmEtsin2.2010.D.CSHTR.com.part4.rar.html
[/HIDE]



[HIDE]
 
http://www.filesonic.com/file/1968870974/CSHTR.12911.F.EmRebLs.BiriYrdmEtsin2.2010.D.CSHTR.com.part1.rar
http://www.filesonic.com/file/1968916294/CSHTR.12911.F.EmRebLs.BiriYrdmEtsin2.2010.D.CSHTR.com.part2.rar
http://www.filesonic.com/file/1968890344/CSHTR.12911.F.EmRebLs.BiriYrdmEtsin2.2010.D.CSHTR.com.part3.rar
http://www.filesonic.com/file/1968870674/CSHTR.12911.F.EmRebLs.BiriYrdmEtsin2.2010.D.CSHTR.com.part4.rar
[/HIDE]



[HIDE]
 
http://www.netload.in/dateiEJIhuNwzcJ/CSHTR.12911.F.EmRebLs.BiriYrdmEtsin2.2010.D.CSHTR.com.part1.rar.htm
http://www.netload.in/dateiuuF6RDM5Cx/CSHTR.12911.F.EmRebLs.BiriYrdmEtsin2.2010.D.CSHTR.com.part2.rar.htm
http://www.netload.in/dateikxxWRHOc0m/CSHTR.12911.F.EmRebLs.BiriYrdmEtsin2.2010.D.CSHTR.com.part3.rar.htm
http://www.netload.in/dateiVq1qthw8je/CSHTR.12911.F.EmRebLs.BiriYrdmEtsin2.2010.D.CSHTR.com.part4.rar.htm
[/HIDE]



[HIDE]
 
http://ul.to/q2doiyux/CSHTR.12911.F.EmRebLs.BiriYrdmEtsin2.2010.D.CSHTR.com.part1.rar
http://ul.to/p0lpdid5/CSHTR.12911.F.EmRebLs.BiriYrdmEtsin2.2010.D.CSHTR.com.part2.rar
http://ul.to/jxkz6p27/CSHTR.12911.F.EmRebLs.BiriYrdmEtsin2.2010.D.CSHTR.com.part3.rar
http://ul.to/afxk0our/CSHTR.12911.F.EmRebLs.BiriYrdmEtsin2.2010.D.CSHTR.com.part4.rar
[/HIDE]



[HIDE]
 
http://www.wupload.com/file/166453107/CSHTR.12911.F.EmRebLs.BiriYrdmEtsin2.2010.D.CSHTR.com.part1.rar
http://www.wupload.com/file/166454114/CSHTR.12911.F.EmRebLs.BiriYrdmEtsin2.2010.D.CSHTR.com.part2.rar
http://www.wupload.com/file/166454120/CSHTR.12911.F.EmRebLs.BiriYrdmEtsin2.2010.D.CSHTR.com.part3.rar
http://www.wupload.com/file/166453103/CSHTR.12911.F.EmRebLs.BiriYrdmEtsin2.2010.D.CSHTR.com.part4.rar
[/HIDE]







www.cshtr.com