A Horrible Way to Die

DVDRip XviD-UNIONBOX

Language | Dublaj Dili : English
Release Date | Gösterim Tarihi : 2010
Uploaded By EmRebLs (11 Eylül 2011 )

Bu paylaşımın toplam boyutu 699 MB olup, Fileserve Bitshare Filesonic Netload Uploaded Wupload sunucularına upload edilmiştir.

Altyazı Takip Linki : http://www.turkcealtyazi.org/mov/161...ay-to-die.html







http://www.imdb.com/title/tt1617620/



Alıntı

Yapım:
2010 ~ ABD, Japonya
Tür:
Gerilim, Korku
Yönetmen:
Adam Wingard
Oyuncular:
Aj Bowen, Amy Seimetz, Brandon Carroll, Joe Swanberg, Lane Hughes
Senaryo:
Simon Barrett
Yapımcı:
Simon Barrett, Kim Sherman, Travis Stevens
Müzik:
Eric Lalicata
An escaped murderer is in pursuit of his ex-girlfriend, who has fled to start a new life in a small town.


 

General
Complete name                    : A.Horrible.Way.To.Die.2010.DVDRip.XviD-UNIONBOX.vip.cshtr.com.avi
Format                           : AVI
Format/Info                      : Audio Video Interleave
File size                        : 699 MiB
Duration                         : 1h 27mn
Overall bit rate                 : 1 121 Kbps
Writing application              : FairUse Wizard - http://fairusewizard.com
Writing library                  : The best and REALLY easy backup tool

Video
Format                           : MPEG-4 Visual
Format profile                   : [email protected]
Format settings, BVOP            : No
Format settings, QPel            : No
Format settings, GMC             : No warppoints
Format settings, Matrix          : Default
Codec ID                         : XVID
Codec ID/Hint                    : XviD
Duration                         : 1h 27mn
Bit rate                         : 983 Kbps
Width                            : 688 pixels
Height                           : 384 pixels
Display aspect ratio             : 16/9
Frame rate                       : 23.976 fps
Resolution                       : 24 bits
Colorimetry                      : 4:2:0
Scan type                        : Progressive
Bits/(Pixel*Frame)               : 0.155
Stream size                      : 613 MiB (88%)
Writing library                  : XviD 1.2.0.dev47 (UTC 2006-11-01)

Audio
Format                           : MPEG Audio
Format version                   : Version 1
Format profile                   : Layer 3
Codec ID                         : 55
Codec ID/Hint                    : MP3
Duration                         : 1h 27mn
Bit rate mode                    : Constant
Bit rate                         : 128 Kbps
Minimum bit rate                 : 128 Kbps
Channel(s)                       : 2 channels
Sampling rate                    : 48.0 KHz
Resolution                       : 16 bits
Stream size                      : 79.9 MiB (11%)
Alignment                        : Aligned on interleaves
Interleave, duration             : 42 ms (1.00 video frame)
Interleave, preload duration     : 504 ms
Writing library                  : LAME3.97 
Encoding settings                : CBR










Bir Part Boyutu: 205 MB - Toplam Boyut: 699 MB





[HIDE]
 
http://www.fileserve.com/file/ERRq9ap/CSHTR.11911.F.EmRebLs.OlmyeBerbtYol.2010.D.CSHTR.com.part1.rar
http://www.fileserve.com/file/zpKz8Qx/CSHTR.11911.F.EmRebLs.OlmyeBerbtYol.2010.D.CSHTR.com.part2.rar
http://www.fileserve.com/file/uyTA6Jc/CSHTR.11911.F.EmRebLs.OlmyeBerbtYol.2010.D.CSHTR.com.part3.rar
http://www.fileserve.com/file/2XJ5dwy/CSHTR.11911.F.EmRebLs.OlmyeBerbtYol.2010.D.CSHTR.com.part4.rar
[/HIDE]



[HIDE]
 
http://bitshare.com/files/ux276d6t/CSHTR.11911.F.EmRebLs.OlmyeBerbtYol.2010.D.CSHTR.com.part1.rar.html
http://bitshare.com/files/ixfeslsh/CSHTR.11911.F.EmRebLs.OlmyeBerbtYol.2010.D.CSHTR.com.part2.rar.html
http://bitshare.com/files/t9z1o7ws/CSHTR.11911.F.EmRebLs.OlmyeBerbtYol.2010.D.CSHTR.com.part3.rar.html
http://bitshare.com/files/q0yhk8gc/CSHTR.11911.F.EmRebLs.OlmyeBerbtYol.2010.D.CSHTR.com.part4.rar.html
[/HIDE]



[HIDE]
 
http://www.filesonic.com/file/1942119094/CSHTR.11911.F.EmRebLs.OlmyeBerbtYol.2010.D.CSHTR.com.part1.rar
http://www.filesonic.com/file/1942119154/CSHTR.11911.F.EmRebLs.OlmyeBerbtYol.2010.D.CSHTR.com.part2.rar
http://www.filesonic.com/file/1942121984/CSHTR.11911.F.EmRebLs.OlmyeBerbtYol.2010.D.CSHTR.com.part3.rar
http://www.filesonic.com/file/1942121794/CSHTR.11911.F.EmRebLs.OlmyeBerbtYol.2010.D.CSHTR.com.part4.rar
[/HIDE]



[HIDE]
 
http://www.netload.in/dateilXUtYdqYaZ/CSHTR.11911.F.EmRebLs.OlmyeBerbtYol.2010.D.CSHTR.com.part1.rar.htm
http://www.netload.in/dateiCIlRNBX9wd/CSHTR.11911.F.EmRebLs.OlmyeBerbtYol.2010.D.CSHTR.com.part2.rar.htm
http://www.netload.in/dateicb6Ay7TO7K/CSHTR.11911.F.EmRebLs.OlmyeBerbtYol.2010.D.CSHTR.com.part3.rar.htm
http://www.netload.in/dateib99u8E2MkD/CSHTR.11911.F.EmRebLs.OlmyeBerbtYol.2010.D.CSHTR.com.part4.rar.htm
[/HIDE]



[HIDE]
 
http://ul.to/5sej4m9f/CSHTR.11911.F.EmRebLs.OlmyeBerbtYol.2010.D.CSHTR.com.part1.rar
http://ul.to/12sbb4gj/CSHTR.11911.F.EmRebLs.OlmyeBerbtYol.2010.D.CSHTR.com.part2.rar
http://ul.to/0ivuk96g/CSHTR.11911.F.EmRebLs.OlmyeBerbtYol.2010.D.CSHTR.com.part3.rar
http://ul.to/vlf7mf3d/CSHTR.11911.F.EmRebLs.OlmyeBerbtYol.2010.D.CSHTR.com.part4.rar
[/HIDE]



[HIDE]
 
http://www.wupload.com/file/162599580/CSHTR.11911.F.EmRebLs.OlmyeBerbtYol.2010.D.CSHTR.com.part1.rar
http://www.wupload.com/file/162599948/CSHTR.11911.F.EmRebLs.OlmyeBerbtYol.2010.D.CSHTR.com.part2.rar
http://www.wupload.com/file/162766820/CSHTR.11911.F.EmRebLs.OlmyeBerbtYol.2010.D.CSHTR.com.part3.rar
http://www.wupload.com/file/162599578/CSHTR.11911.F.EmRebLs.OlmyeBerbtYol.2010.D.CSHTR.com.part4.rar
[/HIDE]







www.cshtr.com