Ashes Then And Now

DVDRip XViD-SPRiNTER

Language | Dublaj Dili : English
Release Date | Gösterim Tarihi : 2010
Uploaded By EmRebLs (11 Eylül 2011 )

Bu paylaşımın toplam boyutu 696 MB olup, Fileserve Bitshare Filesonic Netload Uploaded Wupload sunucularına upload edilmiştir.

Altyazı Takip Linki : Altyazı takip linki yok.







http://www.imdb.com/title/tt1931555/



Alıntı

Storyline

A look back at Ashes contests in Australia over the last 30 years.
Add Full Plot | Add Synopsis
Genres:
Documentary


 

General
Complete name                    : Ashes.Then.And.Now.2010.DVDRip.XViD-SPRiNTER.vip.cshtr.com.avi
Format                           : AVI
Format/Info                      : Audio Video Interleave
File size                        : 697 MiB
Duration                         : 1h 26mn
Overall bit rate                 : 1 127 Kbps
Writing application              : Nandub v1.0rc2
Writing library                  : Nandub build 1853/release

Video
Format                           : MPEG-4 Visual
Format profile                   : Streaming [email protected]
Format settings, BVOP            : No
Format settings, QPel            : No
Format settings, GMC             : No warppoints
Format settings, Matrix          : Default
Codec ID                         : XVID
Codec ID/Hint                    : XviD
Duration                         : 1h 26mn
Bit rate                         : 959 Kbps
Width                            : 576 pixels
Height                           : 320 pixels
Display aspect ratio             : 16/9
Frame rate                       : 25.000 fps
Resolution                       : 24 bits
Colorimetry                      : 4:2:0
Scan type                        : Progressive
Bits/(Pixel*Frame)               : 0.208
Stream size                      : 593 MiB (85%)
Writing library                  : XviD 61

Audio
Format                           : MPEG Audio
Format version                   : Version 1
Format profile                   : Layer 3
Codec ID                         : 55
Codec ID/Hint                    : MP3
Duration                         : 1h 26mn
Bit rate mode                    : Variable
Bit rate                         : 155 Kbps
Channel(s)                       : 2 channels
Sampling rate                    : 48.0 KHz
Resolution                       : 16 bits
Stream size                      : 96.0 MiB (14%)
Alignment                        : Aligned on interleaves
Interleave, duration             : 24 ms (0.60 video frame)
Interleave, preload duration     : 116 ms
Writing library                  : LAME3.89 (alpha)










Bir Part Boyutu: 205 MB - Toplam Boyut: 696 MB





[HIDE]
 
http://www.fileserve.com/file/fJw2WCw/CSHTR.11911.F.EmRebLs.A.2010.D.CSHTR.com.part1.rar
http://www.fileserve.com/file/NdXHNzm/CSHTR.11911.F.EmRebLs.A.2010.D.CSHTR.com.part2.rar
http://www.fileserve.com/file/nePY9kS/CSHTR.11911.F.EmRebLs.A.2010.D.CSHTR.com.part3.rar
http://www.fileserve.com/file/SD3QDWt/CSHTR.11911.F.EmRebLs.A.2010.D.CSHTR.com.part4.rar
[/HIDE]



[HIDE]
 
http://bitshare.com/files/net6iohe/CSHTR.11911.F.EmRebLs.A.2010.D.CSHTR.com.part1.rar.html
http://bitshare.com/files/15esl98m/CSHTR.11911.F.EmRebLs.A.2010.D.CSHTR.com.part2.rar.html
http://bitshare.com/files/l7iuhpjy/CSHTR.11911.F.EmRebLs.A.2010.D.CSHTR.com.part3.rar.html
http://bitshare.com/files/g7m5tx4y/CSHTR.11911.F.EmRebLs.A.2010.D.CSHTR.com.part4.rar.html
[/HIDE]



[HIDE]
 
http://www.filesonic.com/file/1942119194/CSHTR.11911.F.EmRebLs.A.2010.D.CSHTR.com.part1.rar
http://www.filesonic.com/file/1942136874/CSHTR.11911.F.EmRebLs.A.2010.D.CSHTR.com.part2.rar
http://www.filesonic.com/file/1942119174/CSHTR.11911.F.EmRebLs.A.2010.D.CSHTR.com.part3.rar
http://www.filesonic.com/file/1942116104/CSHTR.11911.F.EmRebLs.A.2010.D.CSHTR.com.part4.rar
[/HIDE]



[HIDE]
 
http://www.netload.in/dateiI5y4fIDE5N/CSHTR.11911.F.EmRebLs.A.2010.D.CSHTR.com.part1.rar.htm
http://www.netload.in/dateinTT9iBTDu9/CSHTR.11911.F.EmRebLs.A.2010.D.CSHTR.com.part2.rar.htm
http://www.netload.in/dateiJJOJ3tchrq/CSHTR.11911.F.EmRebLs.A.2010.D.CSHTR.com.part3.rar.htm
http://www.netload.in/datei5W9TM9PBJW/CSHTR.11911.F.EmRebLs.A.2010.D.CSHTR.com.part4.rar.htm
[/HIDE]



[HIDE]
 
http://ul.to/tzzny5js/CSHTR.11911.F.EmRebLs.A.2010.D.CSHTR.com.part1.rar
http://ul.to/n1dsds0r/CSHTR.11911.F.EmRebLs.A.2010.D.CSHTR.com.part3.rar
http://ul.to/n3yd1uci/CSHTR.11911.F.EmRebLs.A.2010.D.CSHTR.com.part2.rar
http://ul.to/z57uo2ek/CSHTR.11911.F.EmRebLs.A.2010.D.CSHTR.com.part4.rar
[/HIDE]



[HIDE]
 
http://www.wupload.com/file/162598377/CSHTR.11911.F.EmRebLs.A.2010.D.CSHTR.com.part1.rar
http://www.wupload.com/file/162598803/CSHTR.11911.F.EmRebLs.A.2010.D.CSHTR.com.part2.rar
http://www.wupload.com/file/162599017/CSHTR.11911.F.EmRebLs.A.2010.D.CSHTR.com.part3.rar
http://www.wupload.com/file/162599945/CSHTR.11911.F.EmRebLs.A.2010.D.CSHTR.com.part4.rar
[/HIDE]







www.cshtr.com