Wedding Crashers

Davetsiz Çapkınlar

DVDRip

Language | Dublaj Dili : English
Release Date | Gösterim Tarihi : 2005
Uploaded By EmRebLs (06 Eylül 2011 )

Bu paylaşımın toplam boyutu 710 MB olup, Fileserve Bitshare Filesonic Netload Uploaded Wupload sunucularına upload edilmiştir.

Altyazı Takip Linki : http://www.turkcealtyazi.org/mov/039...-crashers.html







http://www.imdb.com/title/tt0396269/



Alıntı

Sinemalar.com Puanı:
6.9/10
IMDB Puanı:
7.1/10
Yapım:
2005 ~ ABD
Tür:
Aile, Komedi, Romantik
Yönetmen:
David Dobkin
Oyuncular:
Rachel McAdams, Owen Wilson, Bradley Cooper, Isla Fisher, Christopher Walken, Vince Vaughn, Will Ferrell, David Conrad, Diora Baird, Jennifer Alden, Rebecca De Mornay, Dwight Yoakam, Jane Seymour, Summer Altice, Larry Joe Campbell, Rachel Sterling, Ivana Bozilovic, Camille Anderson, Geoff Stults, Henry Gibson, Keir O'donnell, Patricia Place, Chao Li Chi, Charles Kahlenberg, Cindy Taylor, Ellen Albertini Dow, Frank Ray Perilli, Irene Roseen, James Mcdonnel, Jennifer Massey, Jesse Henecke, John G. Pavelec, Lou Cutell, Melanie Hawkins, Naureen Zaim, Ned Schmidtke, Noel De Souza, Norma Michaels, Ron Canada, Sparkle
Senaryo:
Bob Fisher, Steve Faber
Yapımcı:
Peter Abrams, Andrew Panay, Robert L. Levy
Görüntü Yönetmeni:
Julio Macat
Müzik:
Rolfe Kent
Filmin Websitesi:
www.theweddingcrashers.com
Süre:
1 saat 59 dk
Gösterim Tarihi:
30 Eylül 2005 (Türkiye)
Filmin Özeti

Düğün kimin düğünü olursa olsun hangi etnik kökende ve dinde olursa olsun - Yahudi, İtalyan, İrlanda , Çinli, Hindu- bu karizmatik ve çekici iki genç adam her düğünün en gözde erkekleri olmaktan ve ortalığı birbirine katmaktan çok hoşlanmaktadırlar... Tabii ki bir amaç uğruna... Düğünlerde boy gösteren hoş , bakımlı genç ve bekar kadınları baştan çıkarmak...Düğünü dağıtmanın ana kuralı gittiği her düğünden güzel bir kadınla çıkmaktır. Gelinlerin ve damatların şerefine kadeh kaldırdıkları bir düğün sezonunu daha arkalarında bırakırlarken, Jeremy , William Cleary (Christopher Walken) ve eşi Kathleen’in (Jane Seymour) nikah tazeleyeceklerini öğrenir. Washington, D. C. Sosyetesi için yılın düğünü olacaktır...davetli listesini gözden geçiren iki kafadar John and Jeremy, gelinin nedimeleri Claire (Rachel McAdams) ve Gloria (Isla Fisher) Cleary ‘i gözlerine kestirirler.

Jeremy muhteşem düğünde oyunu tüm kuralları ile oynar ve Gloria’yı baştan çıkarmayı başarır. Fakat John’un Claire ile flörtü beklenmedik bir şekilde kendini beğenmiş Sack (Bradley Cooper) tarafından bertaraf edilir. Jeremy’nin tüm karşı koymalarına rağmen kendi koydukları davetsiz misafirlik kurallarını çiğneyerek Claire’in ailesi ile bir hafta sonu partisinde tanışmaya gider.

Görkemli bir sahil evinde, John ve Jeremy birbirini takip eden komik aksiliklerle hem garip aile bireyleri ile tanışır hem de aşk ve ilişkiler hakkında önemli dersler alırlar...




 

General
Complete name                    : Wedding.Crashers.DvDrip.pbnj.vip.cshtr.com.avi
Format                           : AVI
Format/Info                      : Audio Video Interleave
File size                        : 704 MiB
Duration                         : 2h 6mn
Overall bit rate                 : 775 Kbps
Writing library                  : VirtualDub build 32618/release

Video
Format                           : MPEG-4 Visual
Format profile                   : Streaming [email protected]
Format settings, BVOP            : Yes
Format settings, QPel            : No
Format settings, GMC             : No warppoints
Format settings, Matrix          : Default
Muxing mode                      : Packed bitstream
Codec ID                         : XVID
Codec ID/Hint                    : XviD
Duration                         : 2h 6mn
Bit rate                         : 637 Kbps
Width                            : 640 pixels
Height                           : 296 pixels
Display aspect ratio             : 2.2
Frame rate                       : 23.976 fps
Resolution                       : 24 bits
Colorimetry                      : 4:2:0
Scan type                        : Progressive
Bits/(Pixel*Frame)               : 0.140
Stream size                      : 579 MiB (82%)
Writing library                  : XviD 1.2.1 (UTC 2008-12-04)

Audio
Format                           : MPEG Audio
Format version                   : Version 1
Format profile                   : Layer 3
Codec ID                         : 55
Codec ID/Hint                    : MP3
Duration                         : 2h 6mn
Bit rate mode                    : Constant
Bit rate                         : 128 Kbps
Minimum bit rate                 : 128 Kbps
Channel(s)                       : 1 channel
Sampling rate                    : 48.0 KHz
Resolution                       : 16 bits
Stream size                      : 116 MiB (17%)
Alignment                        : Split accross interleaves
Interleave, duration             : 42 ms (1.00 video frame)
Interleave, preload duration     : 500 ms
Writing library                  : LAME3.98r
Encoding settings                : CBR










Bir Part Boyutu: 205 MB - Toplam Boyut: 710 MB





[HIDE]
 
http://www.fileserve.com/file/VJCvqRg/CSHTR.6911.F.EmRebLs.EvllkKazacisi.2010..CSHTR.com.part1.rar
http://www.fileserve.com/file/rzztTwb/CSHTR.6911.F.EmRebLs.EvllkKazacisi.2010..CSHTR.com.part2.rar
http://www.fileserve.com/file/kAYzVbf/CSHTR.6911.F.EmRebLs.EvllkKazacisi.2010..CSHTR.com.part3.rar
http://www.fileserve.com/file/QzQ6zyG/CSHTR.6911.F.EmRebLs.EvllkKazacisi.2010..CSHTR.com.part4.rar
[/HIDE]



[HIDE]
 
http://bitshare.com/files/md73raj7/CSHTR.6911.F.EmRebLs.EvllkKazacisi.2010..CSHTR.com.part1.rar.html
http://bitshare.com/files/ami2h15z/CSHTR.6911.F.EmRebLs.EvllkKazacisi.2010..CSHTR.com.part2.rar.html
http://bitshare.com/files/2a5akrzp/CSHTR.6911.F.EmRebLs.EvllkKazacisi.2010..CSHTR.com.part3.rar.html
http://bitshare.com/files/j4t1h89l/CSHTR.6911.F.EmRebLs.EvllkKazacisi.2010..CSHTR.com.part4.rar.html
[/HIDE]



[HIDE]
 
http://www.filesonic.com/file/1876543424/CSHTR.6911.F.EmRebLs.EvllkKazacisi.2010..CSHTR.com.part1.rar
http://www.filesonic.com/file/1876543544/CSHTR.6911.F.EmRebLs.EvllkKazacisi.2010..CSHTR.com.part2.rar
http://www.filesonic.com/file/1876662804/CSHTR.6911.F.EmRebLs.EvllkKazacisi.2010..CSHTR.com.part3.rar
http://www.filesonic.com/file/1876579624/CSHTR.6911.F.EmRebLs.EvllkKazacisi.2010..CSHTR.com.part4.rar
[/HIDE]



[HIDE]
 
http://www.netload.in/dateiJyJA5VlUkr/CSHTR.6911.F.EmRebLs.EvllkKazacisi.2010..CSHTR.com.part2.rar.htm
http://www.netload.in/dateiCbHrsIkKVY/CSHTR.6911.F.EmRebLs.EvllkKazacisi.2010..CSHTR.com.part3.rar.htm
http://www.netload.in/datei1iJyqoYpjD/CSHTR.6911.F.EmRebLs.EvllkKazacisi.2010..CSHTR.com.part1.rar.htm
http://www.netload.in/dateiHgDFg2ge0K/CSHTR.6911.F.EmRebLs.EvllkKazacisi.2010..CSHTR.com.part4.rar.htm
[/HIDE]



[HIDE]
 
http://ul.to/ycv1jvbo/CSHTR.6911.F.EmRebLs.EvllkKazacisi.2010..CSHTR.com.part1.rar
http://ul.to/8hsf78ae/CSHTR.6911.F.EmRebLs.EvllkKazacisi.2010..CSHTR.com.part2.rar
http://ul.to/1otq18fb/CSHTR.6911.F.EmRebLs.EvllkKazacisi.2010..CSHTR.com.part3.rar
http://ul.to/wf8so7zz/CSHTR.6911.F.EmRebLs.EvllkKazacisi.2010..CSHTR.com.part4.rar
[/HIDE]



[HIDE]
 
http://www.wupload.com/file/144047672/CSHTR.6911.F.EmRebLs.EvllkKazacisi.2010..CSHTR.com.part1.rar
http://www.wupload.com/file/144047684/CSHTR.6911.F.EmRebLs.EvllkKazacisi.2010..CSHTR.com.part2.rar
http://www.wupload.com/file/144048258/CSHTR.6911.F.EmRebLs.EvllkKazacisi.2010..CSHTR.com.part3.rar
http://www.wupload.com/file/144047483/CSHTR.6911.F.EmRebLs.EvllkKazacisi.2010..CSHTR.com.part4.rar
[/HIDE]







www.cshtr.com