emlaklik & sedatyucel

Pulsar | 2010 | DVDRip | FS NL FSC | Download | iNDiR

Pulsar FESTiVAL DVDRip XviD - EXViD Language | Dublaj Dili : English Release Date | Gösterim Tarihi : 2010 Uploaded By EmRebLs (08 Eylül 2011 ) Bu paylaşımın toplam boyutu 703 MB olup, Fileserve Bitshare Filesonic Netload Uploaded Wupload sunucularına upload edilmiştir.

Bu konu 8712 kez görüntülendi ve 1 yorum aldı ...

    Konuyu değerlendir: Pulsar | 2010 | DVDRip | FS NL FSC | Download | iNDiR

    5 üzerinden | Toplam: 0 kişi oyladı ve 8712 kez incelendi.


Toplam 2 adet sonuctan sayfa basi 1 ile 2 arasi kadar sonuc gösteriliyor
  1. #1

    Dvdrip Pulsar | 2010 | DVDRip | FS NL FSC | Download | iNDiR

    Pulsar

    FESTiVAL DVDRip XviD - EXViD

    Language | Dublaj Dili : English
    Release Date | Gösterim Tarihi : 2010
    Uploaded By EmRebLs (08 Eylül 2011 )

    Bu paylaşımın toplam boyutu 703 MB olup, Fileserve Bitshare Filesonic Netload Uploaded Wupload sunucularına upload edilmiştir.

    Altyazı Takip Linki : http://www.turkcealtyazi.org/mov/1703919/pulsar.html







    http://www.imdb.com/title/tt1703919/



    Alıntı

    Yönetmen:
    Alex Stockman
    Ülke:
    Belçika Belçika
    Tür:
    Dram | Gizem | Romantik
    Rating:
    imdb
    6.0 (85 Oy)
    Süre:
    91 dakika
    Dil:
    Hollandaca, Fransızca, İngilizce
    Senaryo:
    Alex Stockman
    Müzik:
    Guy Van Nueten
    Görüntü Yönetmeni:
    Sébastien Koeppel
    Yapımcılar:
    Kaat Camerlynck | Alex Stockman
    Görüntü:
    Renkli
    Ses Düzeni:
    Dolby Digital
    Firma:
    Corridor
    Samuel works in Brussels as a pharmaceutical delivery man. His gorgeous girlfriend Mireille heads off to New York to intern at a prestigious architecture firm. Shortly after her departure, Sam's computer is hacked. A series of rather dodgy IT-guys fail to protect his wireless network. The mysterious hacker seems intent on screwing up Samuel's life and his relationship with Mireille. Paranoia kicks in. Sam starts to suspect his neighbors and gets obsessed with WiFi-rays... Love, paranoia and two lovers separated by an ocean of communication devices.


     
    
    General
    Complete name                    : Pulsar.2010.FESTiVAL.DVDRip.XviD-EXViD.vip.cshtr.com.avi
    Format                           : AVI
    Format/Info                      : Audio Video Interleave
    File size                        : 697 MiB
    Duration                         : 1h 26mn
    Overall bit rate                 : 1 125 Kbps
    Writing application              : VirtualDubMod 1.5.10.2 (build 2540/release)
    Writing library                  : VirtualDubMod build 2540/release
    
    Video
    Format                           : MPEG-4 Visual
    Format profile                   : Streaming [email protected]
    Format settings, BVOP            : Yes
    Format settings, QPel            : No
    Format settings, GMC             : No warppoints
    Format settings, Matrix          : Default
    Muxing mode                      : Packed bitstream
    Codec ID                         : XVID
    Codec ID/Hint                    : XviD
    Duration                         : 1h 26mn
    Bit rate                         : 983 Kbps
    Width                            : 624 pixels
    Height                           : 368 pixels
    Display aspect ratio             : 1.696
    Frame rate                       : 25.000 fps
    Resolution                       : 24 bits
    Colorimetry                      : 4:2:0
    Scan type                        : Progressive
    Bits/(Pixel*Frame)               : 0.171
    Stream size                      : 609 MiB (87%)
    Writing library                  : XviD 62
    
    Audio
    Format                           : MPEG Audio
    Format version                   : Version 1
    Format profile                   : Layer 3
    Codec ID                         : 55
    Codec ID/Hint                    : MP3
    Duration                         : 1h 26mn
    Bit rate mode                    : Variable
    Bit rate                         : 129 Kbps
    Nominal bit rate                 : 128 Kbps
    Channel(s)                       : 2 channels
    Sampling rate                    : 48.0 KHz
    Resolution                       : 16 bits
    Stream size                      : 79.9 MiB (11%)
    Alignment                        : Aligned on interleaves
    Interleave, duration             : 24 ms (0.60 video frame)
    Interleave, preload duration     : 142 ms
    Writing library                  : LAME3.90.
    Encoding settings                : ABR
    











    Bir Part Boyutu: 205 MB - Toplam Boyut: 703 MB





    [HIDE]
     
    http://www.fileserve.com/file/cDTyRCG/CSHTR.8911.F.EmRebLs.Plsr.2010.D.CSHTR.com.part1.rar
    http://www.fileserve.com/file/BhrArQx/CSHTR.8911.F.EmRebLs.Plsr.2010.D.CSHTR.com.part2.rar
    http://www.fileserve.com/file/rbZstYB/CSHTR.8911.F.EmRebLs.Plsr.2010.D.CSHTR.com.part3.rar
    http://www.fileserve.com/file/EYHaFkd/CSHTR.8911.F.EmRebLs.Plsr.2010.D.CSHTR.com.part4.rar
    [/HIDE]



    [HIDE]
     
    http://bitshare.com/files/ekdf1zbn/CSHTR.8911.F.EmRebLs.Plsr.2010.D.CSHTR.com.part1.rar.html
    http://bitshare.com/files/22h2agtm/CSHTR.8911.F.EmRebLs.Plsr.2010.D.CSHTR.com.part2.rar.html
    http://bitshare.com/files/r7lusl4e/CSHTR.8911.F.EmRebLs.Plsr.2010.D.CSHTR.com.part3.rar.html
    http://bitshare.com/files/3yb8k70i/CSHTR.8911.F.EmRebLs.Plsr.2010.D.CSHTR.com.part4.rar.html
    [/HIDE]



    [HIDE]
     
    http://www.filesonic.com/file/1918424294/CSHTR.8911.F.EmRebLs.Plsr.2010.D.CSHTR.com.part1.rar
    http://www.filesonic.com/file/1918424204/CSHTR.8911.F.EmRebLs.Plsr.2010.D.CSHTR.com.part2.rar
    http://www.filesonic.com/file/1918428844/CSHTR.8911.F.EmRebLs.Plsr.2010.D.CSHTR.com.part3.rar
    http://www.filesonic.com/file/1918425504/CSHTR.8911.F.EmRebLs.Plsr.2010.D.CSHTR.com.part4.rar
    [/HIDE]



    [HIDE]
     
    http://www.netload.in/dateiija3jpCteJ/CSHTR.8911.F.EmRebLs.Plsr.2010.D.CSHTR.com.part1.rar.htm
    http://www.netload.in/dateiyS5JPNV0zY/CSHTR.8911.F.EmRebLs.Plsr.2010.D.CSHTR.com.part2.rar.htm
    http://www.netload.in/dateiUgNiEPhQkH/CSHTR.8911.F.EmRebLs.Plsr.2010.D.CSHTR.com.part3.rar.htm
    http://www.netload.in/datei2bT504X9Jr/CSHTR.8911.F.EmRebLs.Plsr.2010.D.CSHTR.com.part4.rar.htm
    [/HIDE]



    [HIDE]
     
    http://ul.to/je5mrqyf/CSHTR.8911.F.EmRebLs.Plsr.2010.D.CSHTR.com.part1.rar
    http://ul.to/okn1v832/CSHTR.8911.F.EmRebLs.Plsr.2010.D.CSHTR.com.part2.rar
    http://ul.to/pjhk3xhm/CSHTR.8911.F.EmRebLs.Plsr.2010.D.CSHTR.com.part3.rar
    http://ul.to/qib6plwm/CSHTR.8911.F.EmRebLs.Plsr.2010.D.CSHTR.com.part4.rar
    [/HIDE]



    [HIDE]
     
    http://www.wupload.com/file/152620951/CSHTR.8911.F.EmRebLs.Plsr.2010.D.CSHTR.com.part1.rar
    http://www.wupload.com/file/152621041/CSHTR.8911.F.EmRebLs.Plsr.2010.D.CSHTR.com.part2.rar
    http://www.wupload.com/file/152620957/CSHTR.8911.F.EmRebLs.Plsr.2010.D.CSHTR.com.part3.rar
    http://www.wupload.com/file/152621039/CSHTR.8911.F.EmRebLs.Plsr.2010.D.CSHTR.com.part4.rar
    [/HIDE]







    www.cshtr.com



  2. #2

    Standart

    teşekkür ederim