emlaklik & sedatyucel

Meek's Cutoff | Kestirme Yol | 2010 | DVDRip | FS NL FSC | Download | iNDiR

Meek's Cutoff Kestirme Yol LIMITED DVDRip XviD - DoNE Language | Dublaj Dili : English Release Date | Gösterim Tarihi : 2010 Uploaded By EmRebLs (08 Eylül 2011 )

Bu konu 8834 kez görüntülendi ve 1 yorum aldı ...

    Konuyu değerlendir: Meek's Cutoff | Kestirme Yol | 2010 | DVDRip | FS NL FSC | Download | iNDiR

    5 üzerinden | Toplam: 0 kişi oyladı ve 8834 kez incelendi.


Toplam 2 adet sonuctan sayfa basi 1 ile 2 arasi kadar sonuc gösteriliyor
  1. #1

    Dvdrip Meek's Cutoff | Kestirme Yol | 2010 | DVDRip | FS NL FSC | Download | iNDiR

    Meek's Cutoff

    Kestirme Yol

    LIMITED DVDRip XviD - DoNE

    Language | Dublaj Dili : English
    Release Date | Gösterim Tarihi : 2010
    Uploaded By EmRebLs (08 Eylül 2011 )

    Bu paylaşımın toplam boyutu 706 MB olup, Fileserve Bitshare Filesonic Netload Uploaded Wupload sunucularına upload edilmiştir.

    Altyazı Takip Linki : http://www.turkcealtyazi.org/mov/151...ks-cutoff.html







    http://www.imdb.com/title/tt1518812/



    Alıntı

    Sinemalar.com Puanı:
    5.9/10
    Yapım:
    2011, 2016 ~ ABD
    Tür:
    Dram, Western
    Yönetmen:
    Kelly Reichardt
    Oyuncular:
    Michelle Williams, Paul Dano, Bruce Greenwood, Shirley Henderson, Will Patton, Zoe Kazan, Neal Huff, Rod Rondeaux, Tommy Nelson
    Senaryo:
    Jonathan Raymond
    Yapımcı:
    Neil Kopp, David Urrutia, Anish Savjani, Elizabeth Cuthrell
    Görüntü Yönetmeni:
    Chris Blauvelt
    Müzik:
    Mandell Winter
    Filmin Websitesi:
    meekscutoff.com
    Süre:
    1 saat 44 dk
    Gösterim Tarihi:
    15 Temmuz 2011 (ABD)
    Filmin Özeti

    Todd Haynes’in yapımcılığını üstlendiği Kestirme Yol, 19. yüzyılda yaşamış deneyimli dağcı Stephen Meek’in yaşadıklarından uyarlanan bir western. Film, Cascade Dağları’nı aşmak üzere Meek’i rehber olarak tutup batıya doğru göç eden bir grubu takip ediyor. Hiçbir şey bilmemesine rağmen bir kestirme yol bildiğini iddia eden Meek onları çölün orta yerine sürükler. Grup kaybolur; kir pas içinde, aç, yorgun, susuz ve sabırsız... Yönetmen Kelly Reichardt bu filminde toplumsal cinsiyet, medeniyet, ırk, erkeklik gibi kavramları ve western türünün kendisini ustalıkla ele alıyor.




     
    
    General
    Complete name                    : Meeks.Cutoff.LIMITED.DVDRip.XviD-DoNE.vip.cshtr.com.avi
    Format                           : AVI
    Format/Info                      : Audio Video Interleave
    File size                        : 700 MiB
    Duration                         : 1h 38mn
    Overall bit rate                 : 995 Kbps
    Writing application              : VirtualDubMod 1.5.10.2 (build 2540/release)
    Writing library                  : VirtualDubMod build 2540/release
    
    Video
    Format                           : MPEG-4 Visual
    Format profile                   : Streaming [email protected]
    Format settings, BVOP            : Yes
    Format settings, QPel            : No
    Format settings, GMC             : No warppoints
    Format settings, Matrix          : Default
    Codec ID                         : XVID
    Codec ID/Hint                    : XviD
    Duration                         : 1h 38mn
    Bit rate                         : 856 Kbps
    Width                            : 576 pixels
    Height                           : 432 pixels
    Display aspect ratio             : 4/3
    Frame rate                       : 25.000 fps
    Resolution                       : 24 bits
    Colorimetry                      : 4:2:0
    Scan type                        : Progressive
    Bits/(Pixel*Frame)               : 0.138
    Stream size                      : 602 MiB (86%)
    Writing library                  : XviD 1.2.1 (UTC 2008-12-04)
    
    Audio
    Format                           : MPEG Audio
    Format version                   : Version 1
    Format profile                   : Layer 3
    Codec ID                         : 55
    Codec ID/Hint                    : MP3
    Duration                         : 1h 38mn
    Bit rate mode                    : Variable
    Bit rate                         : 126 Kbps
    Nominal bit rate                 : 128 Kbps
    Channel(s)                       : 2 channels
    Sampling rate                    : 48.0 KHz
    Resolution                       : 16 bits
    Stream size                      : 88.5 MiB (13%)
    Alignment                        : Aligned on interleaves
    Interleave, duration             : 24 ms (0.60 video frame)
    Interleave, preload duration     : 146 ms
    Writing library                  : LAME3.90.
    Encoding settings                : ABR
    










    Bir Part Boyutu: 205 MB - Toplam Boyut: 706 MB





    [HIDE]
     
    http://www.fileserve.com/file/JaAjE8M/CSHTR.8911.F.EmRebLs.MC.2010.D.CSHTR.com.part1.rar
    http://www.fileserve.com/file/wzaraVq/CSHTR.8911.F.EmRebLs.MC.2010.D.CSHTR.com.part2.rar
    http://www.fileserve.com/file/gRUdtpp/CSHTR.8911.F.EmRebLs.MC.2010.D.CSHTR.com.part3.rar
    http://www.fileserve.com/file/sy88YcM/CSHTR.8911.F.EmRebLs.MC.2010.D.CSHTR.com.part4.rar
    [/HIDE]



    [HIDE]
     
    Yükleniyor
    [/HIDE]



    [HIDE]
     
    http://www.filesonic.com/file/1918274981/CSHTR.8911.F.EmRebLs.MC.2010.D.CSHTR.com.part1.rar
    http://www.filesonic.com/file/1918299701/CSHTR.8911.F.EmRebLs.MC.2010.D.CSHTR.com.part2.rar
    http://www.filesonic.com/file/1918299711/CSHTR.8911.F.EmRebLs.MC.2010.D.CSHTR.com.part3.rar
    http://www.filesonic.com/file/1918281161/CSHTR.8911.F.EmRebLs.MC.2010.D.CSHTR.com.part4.rar
    [/HIDE]



    [HIDE]
     
    http://www.netload.in/dateiiGQGu7HmYf/CSHTR.8911.F.EmRebLs.MC.2010.D.CSHTR.com.part2.rar.htm
    http://www.netload.in/dateiYUttUFMF7m/CSHTR.8911.F.EmRebLs.MC.2010.D.CSHTR.com.part3.rar.htm
    http://www.netload.in/dateif3auLyeWbg/CSHTR.8911.F.EmRebLs.MC.2010.D.CSHTR.com.part1.rar.htm
    http://www.netload.in/dateif2MDovXtlV/CSHTR.8911.F.EmRebLs.MC.2010.D.CSHTR.com.part4.rar.htm
    [/HIDE]



    [HIDE]
     
    http://ul.to/uo0o5wg5/CSHTR.8911.F.EmRebLs.MC.2010.D.CSHTR.com.part1.rar
    http://ul.to/1de0vlnh/CSHTR.8911.F.EmRebLs.MC.2010.D.CSHTR.com.part2.rar
    http://ul.to/5eac1sm6/CSHTR.8911.F.EmRebLs.MC.2010.D.CSHTR.com.part3.rar
    http://ul.to/wqd4s6l0/CSHTR.8911.F.EmRebLs.MC.2010.D.CSHTR.com.part4.rar
    [/HIDE]



    [HIDE]
     
    http://www.wupload.com/file/152609989/CSHTR.8911.F.EmRebLs.MC.2010.D.CSHTR.com.part1.rar
    http://www.wupload.com/file/152609993/CSHTR.8911.F.EmRebLs.MC.2010.D.CSHTR.com.part2.rar
    http://www.wupload.com/file/152610166/CSHTR.8911.F.EmRebLs.MC.2010.D.CSHTR.com.part3.rar
    http://www.wupload.com/file/152609903/CSHTR.8911.F.EmRebLs.MC.2010.D.CSHTR.com.part4.rar
    [/HIDE]







    www.cshtr.com



  2. #2

    Standart

    teşekkürler