emlaklik & sedatyucel

Beacon77 | 2009 | 480p BRRip | FS NL FSC | Download | iNDiR

Beacon77 480p BRRip Xvid AC3 - UnKnOwN Language | Dublaj Dili : English Release Date | Gösterim Tarihi : 2009 Uploaded By EmRebLs (08 Eylül 2011 ) Bu paylaşımın toplam boyutu 1,21 GB olup, Fileserve Bitshare Filesonic Netload Uploaded Wupload sunucularına upload edilmiştir.

Bu konu 8688 kez görüntülendi ve 1 yorum aldı ...

    Konuyu değerlendir: Beacon77 | 2009 | 480p BRRip | FS NL FSC | Download | iNDiR

    5 üzerinden | Toplam: 0 kişi oyladı ve 8688 kez incelendi.


Toplam 2 adet sonuctan sayfa basi 1 ile 2 arasi kadar sonuc gösteriliyor
  1. #1

    Brrip Beacon77 | 2009 | 480p BRRip | FS NL FSC | Download | iNDiR

    Beacon77

    480p BRRip Xvid AC3 - UnKnOwN

    Language | Dublaj Dili : English
    Release Date | Gösterim Tarihi : 2009
    Uploaded By EmRebLs (08 Eylül 2011 )

    Bu paylaşımın toplam boyutu 1,21 GB olup, Fileserve Bitshare Filesonic Netload Uploaded Wupload sunucularına upload edilmiştir.

    Altyazı Takip Linki : http://www.turkcealtyazi.org/mov/1436571/beacon77.html







    http://www.imdb.com/title/tt1436571/



    Alıntı

    Yapım:
    2009 ~ İngiltere
    Tür:
    Gerilim
    Yönetmen:
    Brad Watson
    Oyuncular:
    Kelly Adams, Lucy Evans, Calita Rainford, Vivienne Harvey, David Horton, Jonathan Rhodes
    Senaryo:
    Debbie Moon, Brad Watson
    Senaryo (Kitap):
    Brad Watson
    Yapımcı:
    Mark Vennis, Gary Phillips, Kay Brown, George Nicolas, Janice De La Mare, Brad Watson
    Görüntü Yönetmeni:
    Tim Wooster
    Müzik:
    Marc Teitler
    Filmin Websitesi:
    www.beacon77.com
    Süre:
    1 saat 35 dk
    Two young women arrive at a curious penthouse apartment, led by one's crush on her tutor.




     
    
    General
    Complete name                    : Beacon77.2010.480p.BRRip.Xvid.AC3-UnKnOwN.vip.cshtr.com.avi
    Format                           : AVI
    Format/Info                      : Audio Video Interleave
    File size                        : 1.19 GiB
    Duration                         : 1h 35mn
    Overall bit rate                 : 1 791 Kbps
    
    Video
    Format                           : MPEG-4 Visual
    Format profile                   : Streaming [email protected]
    Format settings, BVOP            : Yes
    Format settings, QPel            : No
    Format settings, GMC             : No warppoints
    Format settings, Matrix          : Default
    Codec ID                         : XVID
    Codec ID/Hint                    : XviD
    Duration                         : 1h 35mn
    Bit rate                         : 1 396 Kbps
    Width                            : 720 pixels
    Height                           : 304 pixels
    Display aspect ratio             : 2.35
    Frame rate                       : 23.976 fps
    Resolution                       : 24 bits
    Colorimetry                      : 4:2:0
    Scan type                        : Progressive
    Bits/(Pixel*Frame)               : 0.266
    Stream size                      : 953 MiB (78%)
    Writing library                  : XviD 1.2.1 (UTC 2008-12-04)
    
    Audio
    Format                           : AC-3
    Format/Info                      : Audio Coding 3
    Codec ID                         : 2000
    Duration                         : 1h 35mn
    Bit rate mode                    : Constant
    Bit rate                         : 384 Kbps
    Channel(s)                       : 6 channels
    Channel positions                : Front: L C R, Surround: L R, LFE
    Sampling rate                    : 48.0 KHz
    Resolution                       : 16 bits
    Stream size                      : 262 MiB (21%)
    Alignment                        : Aligned on interleaves
    Interleave, duration             : 32 ms (0.77 video frame)
    










    Bir Part Boyutu: 205 MB - Toplam Boyut: 1,21 GB





    [HIDE]
     
    http://www.fileserve.com/file/V9wf4mm/CSHTR.8911.F.EmRebLs.B77.2011.4.CSHTR.com.part1.rar
    http://www.fileserve.com/file/Kt562Q7/CSHTR.8911.F.EmRebLs.B77.2011.4.CSHTR.com.part2.rar
    http://www.fileserve.com/file/jENGbAR/CSHTR.8911.F.EmRebLs.B77.2011.4.CSHTR.com.part3.rar
    http://www.fileserve.com/file/sghvdkk/CSHTR.8911.F.EmRebLs.B77.2011.4.CSHTR.com.part4.rar
    http://www.fileserve.com/file/6etKUW5/CSHTR.8911.F.EmRebLs.B77.2011.4.CSHTR.com.part5.rar
    http://www.fileserve.com/file/Hhm7kTF/CSHTR.8911.F.EmRebLs.B77.2011.4.CSHTR.com.part6.rar
    http://www.fileserve.com/file/axP8SC4/CSHTR.8911.F.EmRebLs.B77.2011.4.CSHTR.com.part7.rar
    [/HIDE]



    [HIDE]
     
    Yükleniyor
    [/HIDE]



    [HIDE]
     
    Yükleniyor
    [/HIDE]



    [HIDE]
     
    http://www.netload.in/dateinpnaEeE6dm/CSHTR.8911.F.EmRebLs.B77.2011.4.CSHTR.com.part1.rar.htm
    http://www.netload.in/dateib3gFbNRff3/CSHTR.8911.F.EmRebLs.B77.2011.4.CSHTR.com.part2.rar.htm
    http://www.netload.in/dateihbIb5FaT71/CSHTR.8911.F.EmRebLs.B77.2011.4.CSHTR.com.part3.rar.htm
    http://www.netload.in/dateiiGwaWpysd5/CSHTR.8911.F.EmRebLs.B77.2011.4.CSHTR.com.part4.rar.htm
    http://www.netload.in/dateisQeXhRCHnn/CSHTR.8911.F.EmRebLs.B77.2011.4.CSHTR.com.part5.rar.htm
    http://www.netload.in/datei8EyQcNw6ug/CSHTR.8911.F.EmRebLs.B77.2011.4.CSHTR.com.part6.rar.htm
    http://www.netload.in/dateiadk0jq5kYg/CSHTR.8911.F.EmRebLs.B77.2011.4.CSHTR.com.part7.rar.htm
    [/HIDE]



    [HIDE]
     
    http://ul.to/91ntvkyh/CSHTR.8911.F.EmRebLs.B77.2011.4.CSHTR.com.part1.rar
    http://ul.to/v2wnwitq/CSHTR.8911.F.EmRebLs.B77.2011.4.CSHTR.com.part2.rar
    http://ul.to/pwxahja6/CSHTR.8911.F.EmRebLs.B77.2011.4.CSHTR.com.part3.rar
    http://ul.to/61imjyx8/CSHTR.8911.F.EmRebLs.B77.2011.4.CSHTR.com.part4.rar
    http://ul.to/7wuym6mu/CSHTR.8911.F.EmRebLs.B77.2011.4.CSHTR.com.part5.rar
    http://ul.to/d154v0bs/CSHTR.8911.F.EmRebLs.B77.2011.4.CSHTR.com.part6.rar
    http://ul.to/fkzcjyb7/CSHTR.8911.F.EmRebLs.B77.2011.4.CSHTR.com.part7.rar
    [/HIDE]



    [HIDE]
     
    http://www.wupload.com/file/152586804/CSHTR.8911.F.EmRebLs.B77.2011.4.CSHTR.com.part1.rar
    http://www.wupload.com/file/152586873/CSHTR.8911.F.EmRebLs.B77.2011.4.CSHTR.com.part2.rar
    http://www.wupload.com/file/152588697/CSHTR.8911.F.EmRebLs.B77.2011.4.CSHTR.com.part3.rar
    http://www.wupload.com/file/152588699/CSHTR.8911.F.EmRebLs.B77.2011.4.CSHTR.com.part4.rar
    http://www.wupload.com/file/152588752/CSHTR.8911.F.EmRebLs.B77.2011.4.CSHTR.com.part5.rar
    http://www.wupload.com/file/152588756/CSHTR.8911.F.EmRebLs.B77.2011.4.CSHTR.com.part6.rar
    http://www.wupload.com/file/152586806/CSHTR.8911.F.EmRebLs.B77.2011.4.CSHTR.com.part7.rar
    [/HIDE]







    www.cshtr.com



  2. #2

    Standart

    düzenleme için teşekkürler...