The Weight Of Chains

DOCU DVDRip XviD - JETSET

Language | Dublaj Dili : English
Release Date | Gösterim Tarihi : 2010
Uploaded By EmRebLs (04 Eylül 2011 )

Bu paylaşımın toplam boyutu 698 MB olup, Fileserve Bitshare Filesonic Netload Uploaded Wupload sunucularına upload edilmiştir.

Altyazı Takip Linki : http://www.turkcealtyazi.org/mov/178...of-chains.html







http://www.imdb.com/title/tt1789083/



Alıntı

Yönetmen:
Boris Malagurski
Ülke:
Kanada Kanada Sırbistan Sırbistan Bosna Hersek Bosna Hersek Slovenia Serbia and Montenegro Amerika Amerika
Tür:
Belgesel | Tarihi |News | Savaş
Rating:
imdb
8.2 (269 Oy)
Süre:
125 dakika
Dil:
İngilizce, Croatian, Serbian
Senaryo:
Boris Malagurski
Müzik:
Jasna Djuran | Novo Sekulovic | Novo Sekulovic | tümü »
Görüntü Yönetmeni:
Boris Malagurski
Yapımcılar:
Branislav Grbovic | Boris Malagurski
Görüntü:
Renkli
Ses Düzeni:
Stereo
Firma:
Malagurski Cinema | Malagurski Cinema
The Weight of Chains is a Canadian documentary film that takes a critical look at the role that the US, NATO and the EU played in the tragic breakup of a once peaceful and prosperous European state - Yugoslavia. The film, bursting with rare stock footage never before seen by Western audiences, is a creative first-hand look at why the West intervened in the Yugoslav conflict, with an impressive roster of interviews with academics, diplomats, media personalities and ordinary citizens of the former Yugoslav republics. This film also presents positive stories from the Yugoslav wars - people helping each other regardless of their ethnic background, stories of bravery and self-sacrifice.




 

General
Complete name                    : The.Weight.Of.Chains.2010.DOCU.DVDRip.XviD-JETSET.vip.cshtr.com.avi
Format                           : AVI
Format/Info                      : Audio Video Interleave
File size                        : 698 MiB
Duration                         : 2h 4mn
Overall bit rate                 : 787 Kbps
Writing application              : Nandub v1.0rc2
Writing library                  : Nandub build 1852/release

Video
Format                           : MPEG-4 Visual
Format profile                   : Streaming [email protected]
Format settings, BVOP            : Yes
Format settings, QPel            : No
Format settings, GMC             : No warppoints
Format settings, Matrix          : Default
Codec ID                         : XVID
Codec ID/Hint                    : XviD
Duration                         : 2h 4mn
Bit rate                         : 643 Kbps
Width                            : 624 pixels
Height                           : 352 pixels
Display aspect ratio             : 16/9
Frame rate                       : 29.970 fps
Resolution                       : 24 bits
Colorimetry                      : 4:2:0
Scan type                        : Progressive
Bits/(Pixel*Frame)               : 0.098
Stream size                      : 571 MiB (82%)
Writing library                  : XviD 63

Audio
Format                           : MPEG Audio
Format version                   : Version 1
Format profile                   : Layer 3
Codec ID                         : 55
Codec ID/Hint                    : MP3
Duration                         : 2h 4mn
Bit rate mode                    : Constant
Bit rate                         : 32.0 Kbps
Channel(s)                       : 2 channels
Sampling rate                    : 48.0 KHz
Resolution                       : 16 bits
Stream size                      : 115 MiB (17%)
Alignment                        : Aligned on interleaves
Interleave, duration             : 24 ms (0.72 video frame)
Interleave, preload duration     : 480 ms
Writing library                  : LAME3.99 (alpha 16)










Bir Part Boyutu: 205 MB - Toplam Boyut: 698 MB





[HIDE]
 
http://www.fileserve.com/file/v3sQdyz/CSHTR.3911.F.EmRebLs.Zincirin.2010.D.CSHTR.com.part1.rar
http://www.fileserve.com/file/dpF8z4W/CSHTR.3911.F.EmRebLs.Zincirin.2010.D.CSHTR.com.part2.rar
http://www.fileserve.com/file/Qqn4gUP/CSHTR.3911.F.EmRebLs.Zincirin.2010.D.CSHTR.com.part3.rar
http://www.fileserve.com/file/4XXrTZR/CSHTR.3911.F.EmRebLs.Zincirin.2010.D.CSHTR.com.part4.rar
[/HIDE]



[HIDE]
 
http://bitshare.com/files/6y1h1nb2/CSHTR.3911.F.EmRebLs.Zincirin.2010.D.CSHTR.com.part1.rar.html
http://bitshare.com/files/3unm1wxx/CSHTR.3911.F.EmRebLs.Zincirin.2010.D.CSHTR.com.part2.rar.html
http://bitshare.com/files/9ihajnei/CSHTR.3911.F.EmRebLs.Zincirin.2010.D.CSHTR.com.part3.rar.html
http://bitshare.com/files/udqoa35o/CSHTR.3911.F.EmRebLs.Zincirin.2010.D.CSHTR.com.part4.rar.html
[/HIDE]



[HIDE]
 
http://www.filesonic.com/file/1850919704/CSHTR.3911.F.EmRebLs.Zincirin.2010.D.CSHTR.com.part1.rar
http://www.filesonic.com/file/1850919634/CSHTR.3911.F.EmRebLs.Zincirin.2010.D.CSHTR.com.part2.rar
http://www.filesonic.com/file/1850919774/CSHTR.3911.F.EmRebLs.Zincirin.2010.D.CSHTR.com.part3.rar
http://www.filesonic.com/file/1850913914/CSHTR.3911.F.EmRebLs.Zincirin.2010.D.CSHTR.com.part4.rar
[/HIDE]



[HIDE]
 

http://www.netload.in/dateiQMdbRvOj2u/CSHTR.3911.F.EmRebLs.Zincirin.2010.D.CSHTR.com.part1.rar.htm
http://www.netload.in/dateivQS53cMra6/CSHTR.3911.F.EmRebLs.Zincirin.2010.D.CSHTR.com.part2.rar.htm
http://www.netload.in/dateiPDamX9O94o/CSHTR.3911.F.EmRebLs.Zincirin.2010.D.CSHTR.com.part3.rar.htm
http://www.netload.in/dateizXhfTyhfLv/CSHTR.3911.F.EmRebLs.Zincirin.2010.D.CSHTR.com.part4.rar.htm
[/HIDE]



[HIDE]
 
http://ul.to/vlo2hn2p/CSHTR.3911.F.EmRebLs.Zincirin.2010.D.CSHTR.com.part1.rar
http://ul.to/vgppyp68/CSHTR.3911.F.EmRebLs.Zincirin.2010.D.CSHTR.com.part2.rar
http://ul.to/k4h4syja/CSHTR.3911.F.EmRebLs.Zincirin.2010.D.CSHTR.com.part3.rar
http://ul.to/n1cwbo5m/CSHTR.3911.F.EmRebLs.Zincirin.2010.D.CSHTR.com.part4.rar
[/HIDE]



[HIDE]
 
http://www.wupload.com/file/138844777/CSHTR.3911.F.EmRebLs.Zincirin.2010.D.CSHTR.com.part1.rar
http://www.wupload.com/file/138844244/CSHTR.3911.F.EmRebLs.Zincirin.2010.D.CSHTR.com.part2.rar
http://www.wupload.com/file/138844304/CSHTR.3911.F.EmRebLs.Zincirin.2010.D.CSHTR.com.part3.rar
http://www.wupload.com/file/138843819/CSHTR.3911.F.EmRebLs.Zincirin.2010.D.CSHTR.com.part4.rar
[/HIDE]







www.cshtr.com