Tracy Morgan: Black and Blue

DVDRip XviD - IGUANA

Language | Dublaj Dili : English
Release Date | Gösterim Tarihi : 2010
Uploaded By EmRebLs (04 Eylül 2011 )

Bu paylaşımın toplam boyutu 697 GB olup, Fileserve Bitshare Filesonic Netload Uploaded Wupload sunucularına upload edilmiştir.

Altyazı Takip Linki : http://www.turkcealtyazi.org/mov/177...-and-blue.html







http://www.imdb.com/title/tt1772407/



Alıntı

Yönetmen:
John Moffitt
Ülke:
Amerika Amerika
Tür:
Komedi
Rating:
imdb
5.0 (58 Oy)
Dil:
İngilizce
Senaryo:
Tracy Morgan
Yapımcılar:
Dave Becky | Benn Fleishman | Courtney Hirsch | tümü »
Görüntü:
Renkli
Ses Düzeni:
Dolby
Firma:
Moffitt-Lee Productions | Home Box Office (HBO)




 

General
Complete name                    : iguana.tmbab.xvid.avi
Format                           : AVI
Format/Info                      : Audio Video Interleave
File size                        : 698 MiB
Duration                         : 57mn 28s
Overall bit rate                 : 1 697 Kbps
Writing application              : VirtualDubMod 1.5.10.2 (build 2540/release)
Writing library                  : VirtualDubMod build 2540/release

Video
Format                           : MPEG-4 Visual
Format profile                   : Streaming [email protected]
Format settings, BVOP            : Yes
Format settings, QPel            : No
Format settings, GMC             : No warppoints
Format settings, Matrix          : Default
Muxing mode                      : Packed bitstream
Codec ID                         : XVID
Codec ID/Hint                    : XviD
Duration                         : 57mn 28s
Bit rate                         : 1 493 Kbps
Width                            : 624 pixels
Height                           : 352 pixels
Display aspect ratio             : 16/9
Frame rate                       : 29.970 fps
Resolution                       : 24 bits
Colorimetry                      : 4:2:0
Scan type                        : Progressive
Bits/(Pixel*Frame)               : 0.227
Stream size                      : 614 MiB (88%)
Writing library                  : XviD 1.2.0.dev49

Audio
Format                           : AC-3
Format/Info                      : Audio Coding 3
Format profile                   : Dolby Digital
Codec ID                         : 2000
Duration                         : 57mn 28s
Bit rate mode                    : Constant
Bit rate                         : 192 Kbps
Channel(s)                       : 2 channels
Channel positions                : L R
Sampling rate                    : 48.0 KHz
Stream size                      : 78.9 MiB (11%)
Alignment                        : Split accross interleaves
Interleave, duration             : 33 ms (1.00 video frame)
Interleave, preload duration     : 500 ms










Bir Part Boyutu: 400 MB - Toplam Boyut: 697 GB





[HIDE]
 
http://www.fileserve.com/file/F6mG6Kn/CSHTR.3911.F.EmRebLs.TMBB.2011.D.CSHTR.com.part1.rar
http://www.fileserve.com/file/qMfc8PT/CSHTR.3911.F.EmRebLs.TMBB.2011.D.CSHTR.com.part2.rar
[/HIDE]



[HIDE]
 
http://bitshare.com/files/priw4fvz/CSHTR.3911.F.EmRebLs.TMBB.2011.D.CSHTR.com.part1.rar.html
http://bitshare.com/files/yfjgf503/CSHTR.3911.F.EmRebLs.TMBB.2011.D.CSHTR.com.part2.rar.html
[/HIDE]



[HIDE]
 
http://www.filesonic.com/file/1850925014/CSHTR.3911.F.EmRebLs.TMBB.2011.D.CSHTR.com.part1.rar
http://www.filesonic.com/file/1850919744/CSHTR.3911.F.EmRebLs.TMBB.2011.D.CSHTR.com.part2.rar
[/HIDE]



[HIDE]
 

http://www.netload.in/dateiYMHppBqcxB/CSHTR.3911.F.EmRebLs.TMBB.2011.D.CSHTR.com.part1.rar.htm
http://www.netload.in/dateiZXQ1y5Tboi/CSHTR.3911.F.EmRebLs.TMBB.2011.D.CSHTR.com.part2.rar.htm
[/HIDE]



[HIDE]
 
http://ul.to/z3vfro80/CSHTR.3911.F.EmRebLs.TMBB.2011.D.CSHTR.com.part1.rar
http://ul.to/jvxku1l7/CSHTR.3911.F.EmRebLs.TMBB.2011.D.CSHTR.com.part2.rar
[/HIDE]



[HIDE]
 
http://www.wupload.com/file/138843182/CSHTR.3911.F.EmRebLs.TMBB.2011.D.CSHTR.com.part1.rar
http://www.wupload.com/file/138843008/CSHTR.3911.F.EmRebLs.TMBB.2011.D.CSHTR.com.part2.rar
[/HIDE]







www.cshtr.com