Bangkok Bound

The Bad Penny

DVDRiP XViD - LAZi

Language | Dublaj Dili : English
Release Date | Gösterim Tarihi : 2010
Uploaded By EmRebLs (26 Ağustos 2011 )

Bu paylaşımın toplam boyutu 700 GB olup, Fileserve Bitshare Filesonic Netload Uploaded Wupload sunucularına upload edilmiştir.

Altyazı Takip Linki : http://www.turkcealtyazi.org/mov/135...bad-penny.html







http://www.imdb.com/title/tt1356392/



Alıntı

Yapım:
2010 ~ ABD
Tür:
Dram, Gerilim, Gizem
Yönetmen:
Todd Bellanca
Oyuncular:
Ling Bai, Tom Arnold, Josh Randall, Alex Veadov, Bruno Gioiello, Casey T. Evans, Frank Stasio, Ilia Volok, Lara Phillips, Nick Faltas, Philip D. Pinto, Travis Aaron Wade
Senaryo:
Todd Bellanca, Sasha Levinson
Yapımcı:
Todd Bellanca, Sarote Tabcum Jr., John Constantine
Görüntü Yönetmeni:
Vincent Passeri, Patrick Cady
Müzik:
Scott M. Miller
Filmin Websitesi:
www.thebadpennymovie.com
A former American boxer now exiled in Bangkok, is forced to confront his violent past after meeting a mysterious fight fan from his hometown.


 

General
Complete name                    : Bangkok.Bound.2010.DVDRiP.XViD-LAZi.vip.cshtr.com.avi
Format                           : AVI
Format/Info                      : Audio Video Interleave
File size                        : 700 MiB
Duration                         : 1h 29mn
Overall bit rate                 : 1 099 Kbps
Writing application              : VirtualDubMod 1.5.4.1 (build 2178/release)
Writing library                  : VirtualDubMod build 2178/release

Video
Format                           : MPEG-4 Visual
Format profile                   : Streaming [email protected]
Format settings, BVOP            : Yes
Format settings, QPel            : No
Format settings, GMC             : No warppoints
Format settings, Matrix          : Custom
Codec ID                         : XVID
Codec ID/Hint                    : XviD
Duration                         : 1h 29mn
Bit rate                         : 983 Kbps
Width                            : 608 pixels
Height                           : 352 pixels
Display aspect ratio             : 16/9
Frame rate                       : 25.000 fps
Resolution                       : 24 bits
Colorimetry                      : 4:2:0
Scan type                        : Progressive
Bits/(Pixel*Frame)               : 0.184
Stream size                      : 626 MiB (89%)
Writing library                  : XviD 1.2.1 (UTC 2008-12-04)

Audio
Format                           : MPEG Audio
Format version                   : Version 1
Format profile                   : Layer 3
Codec ID                         : 55
Codec ID/Hint                    : MP3
Duration                         : 1h 29mn
Bit rate mode                    : Variable
Bit rate                         : 103 Kbps
Channel(s)                       : 2 channels
Sampling rate                    : 48.0 KHz
Resolution                       : 16 bits
Stream size                      : 65.8 MiB (9%)
Alignment                        : Aligned on interleaves
Interleave, duration             : 24 ms (0.60 video frame)
Interleave, preload duration     : 501 ms
Language                         : English










Bir Part Boyutu: 205 MB - Toplam Boyut: 700 GB





[HIDE]
 
http://www.fileserve.com/file/Qa9PcZS/CSHTR.26811.F.EmRebLs.BB.2010.D.CSHTR.com.part1.rar
http://www.fileserve.com/file/fy6TEty/CSHTR.26811.F.EmRebLs.BB.2010.D.CSHTR.com.part2.rar
http://www.fileserve.com/file/3T3dfeT/CSHTR.26811.F.EmRebLs.BB.2010.D.CSHTR.com.part3.rar
http://www.fileserve.com/file/zHDv3W6/CSHTR.26811.F.EmRebLs.BB.2010.D.CSHTR.com.part4.rar
[/HIDE]



[HIDE]
 
http://bitshare.com/files/xk913il0/CSHTR.26811.F.EmRebLs.BB.2010.D.CSHTR.com.part1.rar.html
http://bitshare.com/files/o96q9jwz/CSHTR.26811.F.EmRebLs.BB.2010.D.CSHTR.com.part2.rar.html
http://bitshare.com/files/sjga7a9o/CSHTR.26811.F.EmRebLs.BB.2010.D.CSHTR.com.part3.rar.html
http://bitshare.com/files/0dxoci5x/CSHTR.26811.F.EmRebLs.BB.2010.D.CSHTR.com.part4.rar.html
[/HIDE]



[HIDE]
 
http://www.filesonic.com/file/1777207114/CSHTR.26811.F.EmRebLs.BB.2010.D.CSHTR.com.part1.rar
http://www.filesonic.com/file/1777203724/CSHTR.26811.F.EmRebLs.BB.2010.D.CSHTR.com.part2.rar
http://www.filesonic.com/file/1777203824/CSHTR.26811.F.EmRebLs.BB.2010.D.CSHTR.com.part3.rar
http://www.filesonic.com/file/1777195394/CSHTR.26811.F.EmRebLs.BB.2010.D.CSHTR.com.part4.rar
[/HIDE]



[HIDE]
 
http://www.netload.in/datei4Zgivwd8Ce/CSHTR.26811.F.EmRebLs.BB.2010.D.CSHTR.com.part1.rar.htm
http://www.netload.in/dateiuNQ6JDlCUU/CSHTR.26811.F.EmRebLs.BB.2010.D.CSHTR.com.part2.rar.htm
http://www.netload.in/dateiIkfDq7SQ0R/CSHTR.26811.F.EmRebLs.BB.2010.D.CSHTR.com.part3.rar.htm
http://www.netload.in/dateiLzmp3I5GyN/CSHTR.26811.F.EmRebLs.BB.2010.D.CSHTR.com.part4.rar.htm
[/HIDE]



[HIDE]
 
http://ul.to/emsjd1qf/CSHTR.26811.F.EmRebLs.BB.2010.D.CSHTR.com.part1.rar
http://ul.to/m4392xv3/CSHTR.26811.F.EmRebLs.BB.2010.D.CSHTR.com.part2.rar
http://ul.to/f2xvll9l/CSHTR.26811.F.EmRebLs.BB.2010.D.CSHTR.com.part3.rar
http://ul.to/csn2h82g/CSHTR.26811.F.EmRebLs.BB.2010.D.CSHTR.com.part4.rar
[/HIDE]



[HIDE]
 
http://www.wupload.com/file/124880654/CSHTR.26811.F.EmRebLs.BB.2010.D.CSHTR.com.part1.rar
http://www.wupload.com/file/124878636/CSHTR.26811.F.EmRebLs.BB.2010.D.CSHTR.com.part2.rar
http://www.wupload.com/file/124877498/CSHTR.26811.F.EmRebLs.BB.2010.D.CSHTR.com.part3.rar
http://www.wupload.com/file/124876724/CSHTR.26811.F.EmRebLs.BB.2010.D.CSHTR.com.part4.rar
[/HIDE]







www.cshtr.com