Griff the Invisible

Ultra Mega Süper Kahraman

DVDRIP XViD - REVELATiON

Language | Dublaj Dili : English
Release Date | Gösterim Tarihi : 2010
Uploaded By EmRebLs (22 Ağustos 2011 )

Bu paylaşımın toplam boyutu 1,38 GB olup, Fileserve Bitshare Filesonic Netload Uploaded Wupload sunucularına upload edilmiştir.

Altyazı Takip Linki : http://www.turkcealtyazi.org/mov/150...invisible.html







http://www.imdb.com/title/tt1509803/



Alıntı

Griff the Invisible Film Ekibi
Yönetmen
Leon Ford
Senaryo
Leon Ford

Görüntü Yönetmeni
Simon Chapman

Müzik
Sep Caton
Lee Devaney
Larissa Rate


Oyuncu Rol
Ryan Kwanten Griff
Maeve Dermody Melody
Heather Mitchell Bronwyn
Marshall Napier Benson
Toby Schmitz Tony
David Webb Gary
Kelly Paterniti Gina
Anthony Phelan Detective Stone
Patrick Brammall Tim
Kate Mulvany Cecilia
Chan Griffin Top Hat
Griff the Invisible Detaylar
Türkçe Adı
Ultra Mega Süper Kahraman

Gösterim Tarihi
29 Temmuz 2011

Yapım : 2010

Ülke : Avustralya

Tür : Komedi, Dram, Romantik

Süre : 90 dakika
Bilgi :Süper kahraman Griff ile tanışın. Gündüzleri sıradan bir ofis çalışanı olan, iş arkadaşları tarafından türlü şakalara maruz kalan asosyal kişilik Griff, geceleri masum insanları kötülüklerden koruyan, tekin olmayan karanlık caddelerde dolaşan haydutların düşmanıdır. Elbette böyle biri değildir, en azından gece büründüğü karakter bir süper kahraman değil. Kardeşi Griff'in girdiği ruhsal ikilem karşısında çaresiz kalan abisi, kardeşini yaşama tekrar döndürebilmek için Melody isimli sevimli bir bayanla tanıştırır. En az Griff kadar garip olan Melody, bakalım aşık olduğu bu adam için neleri göze alacaktır?


 

General
Complete name                    : GRIFF.THE.INVISIBLE.DVDRIP.XViD-REVELATiON.avi
Format                           : AVI
Format/Info                      : Audio Video Interleave
File size                        : 1.37 GiB
Duration                         : 1h 28mn
Overall bit rate                 : 2 206 Kbps
Writing library                  : VirtualDub build 32706/release

Video
Format                           : MPEG-4 Visual
Format profile                   : Streaming [email protected]
Format settings, BVOP            : Yes
Format settings, QPel            : No
Format settings, GMC             : No warppoints
Format settings, Matrix          : Default
Muxing mode                      : Packed bitstream
Codec ID                         : XVID
Codec ID/Hint                    : XviD
Duration                         : 1h 28mn
Bit rate                         : 1 748 Kbps
Width                            : 720 pixels
Height                           : 384 pixels
Display aspect ratio             : 1.875
Frame rate                       : 25.000 fps
Resolution                       : 24 bits
Colorimetry                      : 4:2:0
Scan type                        : Progressive
Bits/(Pixel*Frame)               : 0.253
Stream size                      : 1.09 GiB (79%)
Writing library                  : XviD 64

Audio
Format                           : AC-3
Format/Info                      : Audio Coding 3
Codec ID                         : 2000
Duration                         : 1h 28mn
Bit rate mode                    : Constant
Bit rate                         : 448 Kbps
Channel(s)                       : 6 channels
Channel positions                : Front: L C R, Surround: L R, LFE
Sampling rate                    : 48.0 KHz
Stream size                      : 285 MiB (20%)
Alignment                        : Aligned on interleaves
Interleave, duration             : 40 ms (1.00 video frame)
Interleave, preload duration     : 512 ms










Bir Part Boyutu: 205 MB - Toplam Boyut: 1,38 GB





[HIDE]
 
http://www.fileserve.com/file/NZ6VRVA/CSHTR.22811.F.EmRebLs.GrfTinv.2010.D.CSHTR.com.part1.rar
http://www.fileserve.com/file/4N6ZRqc/CSHTR.22811.F.EmRebLs.GrfTinv.2010.D.CSHTR.com.part2.rar
http://www.fileserve.com/file/DjPx3S2/CSHTR.22811.F.EmRebLs.GrfTinv.2010.D.CSHTR.com.part3.rar
http://www.fileserve.com/file/VaFTcf3/CSHTR.22811.F.EmRebLs.GrfTinv.2010.D.CSHTR.com.part4.rar
http://www.fileserve.com/file/PBKur7b/CSHTR.22811.F.EmRebLs.GrfTinv.2010.D.CSHTR.com.part5.rar
http://www.fileserve.com/file/9CqARKz/CSHTR.22811.F.EmRebLs.GrfTinv.2010.D.CSHTR.com.part6.rar
http://www.fileserve.com/file/NhWXwEU/CSHTR.22811.F.EmRebLs.GrfTinv.2010.D.CSHTR.com.part7.rar
[/HIDE]



[HIDE]
 
http://bitshare.com/files/y95kt3yp/CSHTR.22811.F.EmRebLs.GrfTinv.2010.D.CSHTR.com.part1.rar.html
http://bitshare.com/files/gzmywsmm/CSHTR.22811.F.EmRebLs.GrfTinv.2010.D.CSHTR.com.part2.rar.html
http://bitshare.com/files/kj90ho24/CSHTR.22811.F.EmRebLs.GrfTinv.2010.D.CSHTR.com.part3.rar.html
http://bitshare.com/files/u373p34o/CSHTR.22811.F.EmRebLs.GrfTinv.2010.D.CSHTR.com.part4.rar.html
http://bitshare.com/files/ar8d4upc/CSHTR.22811.F.EmRebLs.GrfTinv.2010.D.CSHTR.com.part5.rar.html
http://bitshare.com/files/h5myjajp/CSHTR.22811.F.EmRebLs.GrfTinv.2010.D.CSHTR.com.part6.rar.html
http://bitshare.com/files/rikfn2o5/CSHTR.22811.F.EmRebLs.GrfTinv.2010.D.CSHTR.com.part7.rar.html
[/HIDE]



[HIDE]
 
http://www.filesonic.com/file/1733008371/CSHTR.22811.F.EmRebLs.GrfTinv.2010.D.CSHTR.com.part1.rar
http://www.filesonic.com/file/1733017421/CSHTR.22811.F.EmRebLs.GrfTinv.2010.D.CSHTR.com.part2.rar
http://www.filesonic.com/file/1733001914/CSHTR.22811.F.EmRebLs.GrfTinv.2010.D.CSHTR.com.part3.rar
http://www.filesonic.com/file/1733034971/CSHTR.22811.F.EmRebLs.GrfTinv.2010.D.CSHTR.com.part4.rar
http://www.filesonic.com/file/1733041971/CSHTR.22811.F.EmRebLs.GrfTinv.2010.D.CSHTR.com.part5.rar
http://www.filesonic.com/file/1733017391/CSHTR.22811.F.EmRebLs.GrfTinv.2010.D.CSHTR.com.part6.rar
http://www.filesonic.com/file/1733037991/CSHTR.22811.F.EmRebLs.GrfTinv.2010.D.CSHTR.com.part7.rar
[/HIDE]



[HIDE]
 
http://www.netload.in/dateiYdC2sBnB0j/CSHTR.22811.F.EmRebLs.GrfTinv.2010.D.CSHTR.com.part1.rar.htm
http://www.netload.in/dateiHn4pUo1YB5/CSHTR.22811.F.EmRebLs.GrfTinv.2010.D.CSHTR.com.part2.rar.htm
http://www.netload.in/dateiM34xyrYRm0/CSHTR.22811.F.EmRebLs.GrfTinv.2010.D.CSHTR.com.part3.rar.htm
http://www.netload.in/dateiJKnUQiZlCS/CSHTR.22811.F.EmRebLs.GrfTinv.2010.D.CSHTR.com.part4.rar.htm
http://www.netload.in/dateiVigbgSMmMu/CSHTR.22811.F.EmRebLs.GrfTinv.2010.D.CSHTR.com.part5.rar.htm
http://www.netload.in/dateiQrloCbr1Au/CSHTR.22811.F.EmRebLs.GrfTinv.2010.D.CSHTR.com.part6.rar.htm
http://www.netload.in/dateihTycU8haXI/CSHTR.22811.F.EmRebLs.GrfTinv.2010.D.CSHTR.com.part7.rar.htm
[/HIDE]



[HIDE]
 
http://ul.to/pgagiurg/CSHTR.22811.F.EmRebLs.GrfTinv.2010.D.CSHTR.com.part1.rar
http://ul.to/4r1zrqhj/CSHTR.22811.F.EmRebLs.GrfTinv.2010.D.CSHTR.com.part2.rar
http://ul.to/9iun3qnl/CSHTR.22811.F.EmRebLs.GrfTinv.2010.D.CSHTR.com.part3.rar
http://ul.to/6tr6g622/CSHTR.22811.F.EmRebLs.GrfTinv.2010.D.CSHTR.com.part4.rar
http://ul.to/qrycsnhv/CSHTR.22811.F.EmRebLs.GrfTinv.2010.D.CSHTR.com.part5.rar
http://ul.to/qbpss70v/CSHTR.22811.F.EmRebLs.GrfTinv.2010.D.CSHTR.com.part6.rar
http://ul.to/sred3nyg/CSHTR.22811.F.EmRebLs.GrfTinv.2010.D.CSHTR.com.part7.rar
[/HIDE]



[HIDE]
 
http://www.wupload.com/file/116759569/CSHTR.22811.F.EmRebLs.GrfTinv.2010.D.CSHTR.com.part1.rar
http://www.wupload.com/file/116759570/CSHTR.22811.F.EmRebLs.GrfTinv.2010.D.CSHTR.com.part2.rar
http://www.wupload.com/file/116759571/CSHTR.22811.F.EmRebLs.GrfTinv.2010.D.CSHTR.com.part3.rar
http://www.wupload.com/file/116759572/CSHTR.22811.F.EmRebLs.GrfTinv.2010.D.CSHTR.com.part4.rar
http://www.wupload.com/file/116759573/CSHTR.22811.F.EmRebLs.GrfTinv.2010.D.CSHTR.com.part5.rar
http://www.wupload.com/file/116759574/CSHTR.22811.F.EmRebLs.GrfTinv.2010.D.CSHTR.com.part6.rar
http://www.wupload.com/file/116759575/CSHTR.22811.F.EmRebLs.GrfTinv.2010.D.CSHTR.com.part7.rar
[/HIDE]







www.cshtr.com