emlaklik & sedatyucel

Exorcismus | 2010 | LiMiTED DVDRip | FS NL FSC | Download | iNDiR

Exorcismus (La posesión de Emma Evans) İblis LiMiTED DVDRip XviD - LPD Language | Dublaj Dili : English Release Date | Gösterim Tarihi : 2010 Uploaded By EmRebLs (22 Ağustos 2011 )

Bu konu 1065 kez görüntülendi ve 1 yorum aldı ...

    Konuyu değerlendir: Exorcismus | 2010 | LiMiTED DVDRip | FS NL FSC | Download | iNDiR

    5 üzerinden | Toplam: 0 kişi oyladı ve 1065 kez incelendi.


Toplam 2 adet sonuctan sayfa basi 1 ile 2 arasi kadar sonuc gösteriliyor
  1. #1

    Dvdrip Exorcismus | 2010 | LiMiTED DVDRip | FS NL FSC | Download | iNDiR

    Exorcismus

    (La posesión de Emma Evans)
    İblis

    LiMiTED DVDRip XviD - LPD

    Language | Dublaj Dili : English
    Release Date | Gösterim Tarihi : 2010
    Uploaded By EmRebLs (22 Ağustos 2011 )

    Bu paylaşımın toplam boyutu 708 MB olup, Fileserve Bitshare Filesonic Netload Uploaded Wupload sunucularına upload edilmiştir.

    Altyazı Takip Linki : http://www.turkcealtyazi.org/mov/132...mma-evans.html







    http://www.imdb.com/title/tt1322306/



    Alıntı

    Yönetmen
    Manuel Carballo
    Senaryo
    David Muñoz

    Görüntü Yönetmeni
    Javier G. Salmones

    Müzik
    Zacarías M. de la Riva


    Oyuncu Rol
    Tommy Bastow Alex
    Doug Bradley Father Ennis
    Stephen Billington Christopher
    Sophie Vavasseur Emma
    Richard Felix John
    Jo-Anne Stockham Lucy
    Brendan Price Brian
    Isamaya Ffrench Rose
    Clàudia Costas Jessica
    Isamaya French Rose
    Pere Raich Spanish Priest 2
    Lazzaro E. Oertli Ortiz Mark
    Emma Reynolds Sarah
    Cristina Cervià Jessica's Mother
    Francesc Ten Spanish Priest 1
    La posesión de Emma Evans Detaylar
    Türkçe Adı
    İblis

    Gösterim Tarihi
    29 Temmuz 2011

    Yapım : 2010

    Ülke : İspanya

    Tür : Korku
    Bilgi :Onbeş yaşındaki Emma Hawkins çevresindeki genç kızlardan biraz farklıdır. Ergenliğin getirdiği bazı psikolojik sorunlarla boğuşan kız, anne ve babasının onu anlamadığını düşünmektedir. Aile bağları ve kendi özgürlüğü ile ilgili problemleri olduğunu düşünen Emma bir süre sonra çok daha baş ağrıtıcı bir problemle yüzleşmek zorunda kalacaktır. Günlerden bir gün ani olarak hem psikolojik hem de fiziksel olarak değişmeye başlayan kızın sorunlarının tıbbi olduğunu düşünen ailesi kızlarını doktora götürür. Yapılan testlerden herhangi bir sonucun çıkmaması üzerine aile dertlerine başka bir yerde başka bir cevap aramak durumunda kalacaktır.


     
    
    General
    Complete name                    : exorcismus.2010.dvdrip.xvid-lpd.avi
    Format                           : AVI
    Format/Info                      : Audio Video Interleave
    File size                        : 701 MiB
    Duration                         : 1h 41mn
    Overall bit rate                 : 969 Kbps
    Writing application              : Nandub v1.0rc2
    Writing library                  : Nandub build 1852/release
    
    Video
    Format                           : MPEG-4 Visual
    Format profile                   : Streaming [email protected]
    Format settings, BVOP            : Yes
    Format settings, QPel            : No
    Format settings, GMC             : No warppoints
    Format settings, Matrix          : Default
    Codec ID                         : XVID
    Codec ID/Hint                    : XviD
    Duration                         : 1h 41mn
    Bit rate                         : 827 Kbps
    Width                            : 640 pixels
    Height                           : 272 pixels
    Display aspect ratio             : 2.35
    Frame rate                       : 23.976 fps
    Resolution                       : 24 bits
    Colorimetry                      : 4:2:0
    Scan type                        : Progressive
    Bits/(Pixel*Frame)               : 0.198
    Stream size                      : 598 MiB (85%)
    Writing library                  : XviD 61
    
    Audio
    Format                           : MPEG Audio
    Format version                   : Version 1
    Format profile                   : Layer 3
    Codec ID                         : 55
    Codec ID/Hint                    : MP3
    Duration                         : 1h 41mn
    Bit rate mode                    : Variable
    Bit rate                         : 129 Kbps
    Channel(s)                       : 2 channels
    Sampling rate                    : 48.0 KHz
    Resolution                       : 16 bits
    Stream size                      : 93.5 MiB (13%)
    Alignment                        : Aligned on interleaves
    Interleave, duration             : 24 ms (0.58 video frame)
    Interleave, preload duration     : 136 ms
    Writing library                  : LAME3.93 
    Encoding settings                : VBR (mtrh)
    










    Bir Part Boyutu: 205 MB - Toplam Boyut: 708 MB





    [HIDE]
     
    http://www.fileserve.com/file/EpfrxJN/CSHTR.22811.F.EmRebLs.Exo.2010.D.CSHTR.com.part1.rar
    http://www.fileserve.com/file/AU5ACxQ/CSHTR.22811.F.EmRebLs.Exo.2010.D.CSHTR.com.part2.rar
    http://www.fileserve.com/file/WMetd92/CSHTR.22811.F.EmRebLs.Exo.2010.D.CSHTR.com.part3.rar
    http://www.fileserve.com/file/468GHdU/CSHTR.22811.F.EmRebLs.Exo.2010.D.CSHTR.com.part4.rar
    [/HIDE]



    [HIDE]
     
    http://bitshare.com/files/n5z0hkgd/CSHTR.22811.F.EmRebLs.Exo.2010.D.CSHTR.com.part1.rar.html
    http://bitshare.com/files/8h3hckdt/CSHTR.22811.F.EmRebLs.Exo.2010.D.CSHTR.com.part3.rar.html
    http://bitshare.com/files/vbs4rs2a/CSHTR.22811.F.EmRebLs.Exo.2010.D.CSHTR.com.part4.rar.html
    [/HIDE]



    [HIDE]
     
    http://www.filesonic.com/file/1733038541/CSHTR.22811.F.EmRebLs.Exo.2010.D.CSHTR.com.part1.rar
    http://www.filesonic.com/file/1733017681/CSHTR.22811.F.EmRebLs.Exo.2010.D.CSHTR.com.part2.rar
    http://www.filesonic.com/file/1733001841/CSHTR.22811.F.EmRebLs.Exo.2010.D.CSHTR.com.part3.rar
    http://www.filesonic.com/file/1733001801/CSHTR.22811.F.EmRebLs.Exo.2010.D.CSHTR.com.part4.rar
    [/HIDE]



    [HIDE]
     
    http://www.netload.in/dateiPX3j2bGOg9/CSHTR.22811.F.EmRebLs.Exo.2010.D.CSHTR.com.part1.rar.htm
    http://www.netload.in/dateihpSEohW4Uf/CSHTR.22811.F.EmRebLs.Exo.2010.D.CSHTR.com.part2.rar.htm
    http://www.netload.in/datei9dckbJ1oAn/CSHTR.22811.F.EmRebLs.Exo.2010.D.CSHTR.com.part3.rar.htm
    http://www.netload.in/dateiIy8aflLPcU/CSHTR.22811.F.EmRebLs.Exo.2010.D.CSHTR.com.part4.rar.htm
    [/HIDE]



    [HIDE]
     
    http://ul.to/34fblaen/CSHTR.22811.F.EmRebLs.Exo.2010.D.CSHTR.com.part1.rar
    http://ul.to/5g8lwcdr/CSHTR.22811.F.EmRebLs.Exo.2010.D.CSHTR.com.part2.rar
    http://ul.to/q1zy3wdk/CSHTR.22811.F.EmRebLs.Exo.2010.D.CSHTR.com.part3.rar
    http://ul.to/wl91poup/CSHTR.22811.F.EmRebLs.Exo.2010.D.CSHTR.com.part4.rar
    [/HIDE]



    [HIDE]
     
    http://www.wupload.com/file/116759565/CSHTR.22811.F.EmRebLs.Exo.2010.D.CSHTR.com.part1.rar
    http://www.wupload.com/file/116759566/CSHTR.22811.F.EmRebLs.Exo.2010.D.CSHTR.com.part2.rar
    http://www.wupload.com/file/116759567/CSHTR.22811.F.EmRebLs.Exo.2010.D.CSHTR.com.part3.rar
    http://www.wupload.com/file/116759568/CSHTR.22811.F.EmRebLs.Exo.2010.D.CSHTR.com.part4.rar
    [/HIDE]







    www.cshtr.com



  2. #2

    Standart

    eline sağlık..