Death Stop Holocaust

DVDRip XviD - TiCTaC

Language | Dublaj Dili : English
Release Date | Gösterim Tarihi : 2009
Uploaded By EmRebLs (20 Ağustos 2011 )

Bu paylaşımın toplam boyutu 895 MB olup, Fileserve Bitshare Filesonic Netload Uploaded Wupload sunucularına upload edilmiştir.








http://www.imdb.com/title/tt1619636/



Alıntı

Genre:Horror

Two young women, Elizabeth and Taylor, travel to their father's summer home on a remote island for a vacation getaway
. As they travel deeper into the island, a nightmare begins to unfold. An unmarked white van will not leave them be, as they begin to sink deeper into terror. It becomes clear to the women they are not welcome as a group of masked killers begin to torment, torture, and hack them to bits. What secrets does this island hold and what lengths will they go to preserve them?


Director:
Justin Russell
Writer:
Justin Russell
Stars:
Lisa Krenisky, Jenna Fournier and E. Ray Goodwin


 

General
Complete name                    : Death Stop Holocaust 2009 DVDRip TiCTaC.avi
Format                           : AVI
Format/Info                      : Audio Video Interleave
File size                        : 895 MiB
Duration                         : 1h 19mn
Overall bit rate                 : 1 571 Kbps
Writing application              : Lavf52.13.0
Writing library                  : VirtualDub build 32842/release

Video
Format                           : MPEG-4 Visual
Format profile                   : [email protected]
Format settings, BVOP            : No
Format settings, QPel            : No
Format settings, GMC             : No warppoints
Format settings, Matrix          : Default
Codec ID                         : XVID
Codec ID/Hint                    : XviD
Duration                         : 1h 19mn
Bit rate                         : 1 366 Kbps
Width                            : 720 pixels
Height                           : 432 pixels
Display aspect ratio             : 16/9
Frame rate                       : 25.000 fps
Resolution                       : 24 bits
Colorimetry                      : 4:2:0
Scan type                        : Progressive
Bits/(Pixel*Frame)               : 0.176
Stream size                      : 778 MiB (87%)
Writing library                  : Lavc51.54.0

Audio
Format                           : MPEG Audio
Format version                   : Version 1
Format profile                   : Layer 3
Codec ID                         : 55
Codec ID/Hint                    : MP3
Duration                         : 1h 19mn
Bit rate mode                    : Constant
Bit rate                         : 192 Kbps
Channel(s)                       : 2 channels
Sampling rate                    : 44.1 KHz
Resolution                       : 16 bits
Stream size                      : 109 MiB (12%)
Alignment                        : Aligned on interleaves
Interleave, duration             : 26 ms (0.65 video frame)
Interleave, preload duration     : 522 ms
Writing library                  : LAME3.98 (beta)










Bir Part Boyutu: 205 MB - Toplam Boyut: 895 MB





[HIDE]
 
http://www.fileserve.com/file/5BwHb8d/CSHTR.20811.F.EmRebLs.OlumStp.2009.D.CSHTR.com.part1.rar
http://www.fileserve.com/file/c9Wu2Mu/CSHTR.20811.F.EmRebLs.OlumStp.2009.D.CSHTR.com.part2.rar
http://www.fileserve.com/file/yuerMbw/CSHTR.20811.F.EmRebLs.OlumStp.2009.D.CSHTR.com.part3.rar
http://www.fileserve.com/file/7HJW4Fy/CSHTR.20811.F.EmRebLs.OlumStp.2009.D.CSHTR.com.part4.rar
http://www.fileserve.com/file/pjpuVTB/CSHTR.20811.F.EmRebLs.OlumStp.2009.D.CSHTR.com.part5.rar
[/HIDE]



[HIDE]
 
http://bitshare.com/files/ccliqyr9/CSHTR.20811.F.EmRebLs.OlumStp.2009.D.CSHTR.com.part1.rar.html
http://bitshare.com/files/hspi3zst/CSHTR.20811.F.EmRebLs.OlumStp.2009.D.CSHTR.com.part2.rar.html
http://bitshare.com/files/c1fnd8ry/CSHTR.20811.F.EmRebLs.OlumStp.2009.D.CSHTR.com.part3.rar.html
http://bitshare.com/files/m6rx9llm/CSHTR.20811.F.EmRebLs.OlumStp.2009.D.CSHTR.com.part4.rar.html
http://bitshare.com/files/puqpx0ds/CSHTR.20811.F.EmRebLs.OlumStp.2009.D.CSHTR.com.part5.rar.html
[/HIDE]



[HIDE]
 
http://www.filesonic.com/file/1718821034/CSHTR.20811.F.EmRebLs.OlumStp.2009.D.CSHTR.com.part1.rar
http://www.filesonic.com/file/1718798204/CSHTR.20811.F.EmRebLs.OlumStp.2009.D.CSHTR.com.part2.rar
http://www.filesonic.com/file/1718840024/CSHTR.20811.F.EmRebLs.OlumStp.2009.D.CSHTR.com.part3.rar
http://www.filesonic.com/file/1718899184/CSHTR.20811.F.EmRebLs.OlumStp.2009.D.CSHTR.com.part4.rar
http://www.filesonic.com/file/1718761184/CSHTR.20811.F.EmRebLs.OlumStp.2009.D.CSHTR.com.part5.rar
[/HIDE]



[HIDE]
 
http://www.netload.in/dateivmEcEMtfkj/CSHTR.20811.F.EmRebLs.OlumStp.2009.D.CSHTR.com.part1.rar.htm
http://www.netload.in/dateiZ7pXRCQ1dB/CSHTR.20811.F.EmRebLs.OlumStp.2009.D.CSHTR.com.part2.rar.htm
http://www.netload.in/dateifie7tBNyqD/CSHTR.20811.F.EmRebLs.OlumStp.2009.D.CSHTR.com.part3.rar.htm
http://www.netload.in/dateimX3vwka5bX/CSHTR.20811.F.EmRebLs.OlumStp.2009.D.CSHTR.com.part4.rar.htm
http://www.netload.in/dateiMiBySt5G8H/CSHTR.20811.F.EmRebLs.OlumStp.2009.D.CSHTR.com.part5.rar.htm
[/HIDE]



[HIDE]
 
http://ul.to/nbm5ji0n/CSHTR.20811.F.EmRebLs.OlumStp.2009.D.CSHTR.com.part1.rar
http://ul.to/6jofkudt/CSHTR.20811.F.EmRebLs.OlumStp.2009.D.CSHTR.com.part2.rar
http://ul.to/qjddig20/CSHTR.20811.F.EmRebLs.OlumStp.2009.D.CSHTR.com.part3.rar
http://ul.to/lgd5cjg0/CSHTR.20811.F.EmRebLs.OlumStp.2009.D.CSHTR.com.part4.rar
http://ul.to/200ukwdg/CSHTR.20811.F.EmRebLs.OlumStp.2009.D.CSHTR.com.part5.rar
[/HIDE]



[HIDE]
 
http://www.wupload.com/file/116759484/CSHTR.20811.F.EmRebLs.OlumStp.2009.D.CSHTR.com.part1.rar
http://www.wupload.com/file/116759485/CSHTR.20811.F.EmRebLs.OlumStp.2009.D.CSHTR.com.part2.rar
http://www.wupload.com/file/116759486/CSHTR.20811.F.EmRebLs.OlumStp.2009.D.CSHTR.com.part3.rar
http://www.wupload.com/file/116759487/CSHTR.20811.F.EmRebLs.OlumStp.2009.D.CSHTR.com.part4.rar
http://www.wupload.com/file/116759488/CSHTR.20811.F.EmRebLs.OlumStp.2009.D.CSHTR.com.part5.rar
[/HIDE]







www.cshtr.com