Machete Maidens Unleashed!

DVDRip XViD - SPRiNTER

Language | Dublaj Dili : English
Release Date | Gösterim Tarihi : 2010
Uploaded By EmRebLs (20 Ağustos 2011 )

Bu paylaşımın toplam boyutu 698 MB olup, Fileserve Bitshare Filesonic Netload Uploaded Wupload sunucularına upload edilmiştir.

Altyazı Takip Linki : http://www.turkcealtyazi.org/mov/162...unleashed.html







http://www.imdb.com/title/tt1623757/



Alıntı

Yönetmen:
Mark Hartley
Ülke:
Avustralya Avustralya
Tür:
Belgesel
Rating:
imdb
7.3 (142 Oy)
rotten
6.8 (F:6 R:1)
Vizyon Tarihi:
24 Temmuz 2010 (Avustralya)
Dil:
İngilizce
Senaryo:
Mark Hartley
Müzik:
Jamie Blanks
Görüntü Yönetmeni:
Karl von Moller
Yapımcılar:
Veronica Fury | Melissa Hines | Andrew Leavold | tümü »
Firma:
Bionic Boy Productions | Fury Production
A fast moving odyssey into the subterranean world of the rarely explored province of Filipino genre filmmaking.


 

General
Complete name                    : sprinter-xvid-machmaid.avi
Format                           : AVI
Format/Info                      : Audio Video Interleave
File size                        : 699 MiB
Duration                         : 1h 24mn
Overall bit rate                 : 1 163 Kbps
Writing application              : Nandub v1.0rc2
Writing library                  : Nandub build 1853/release

Video
Format                           : MPEG-4 Visual
Format profile                   : Streaming [email protected]
Format settings, BVOP            : No
Format settings, QPel            : No
Format settings, GMC             : No warppoints
Format settings, Matrix          : Default
Codec ID                         : XVID
Codec ID/Hint                    : XviD
Duration                         : 1h 24mn
Bit rate                         : 1 013 Kbps
Width                            : 576 pixels
Height                           : 320 pixels
Display aspect ratio             : 16/9
Frame rate                       : 25.000 fps
Resolution                       : 24 bits
Colorimetry                      : 4:2:0
Scan type                        : Progressive
Bits/(Pixel*Frame)               : 0.220
Stream size                      : 609 MiB (87%)
Writing library                  : XviD 61

Audio
Format                           : MPEG Audio
Format version                   : Version 1
Format profile                   : Layer 3
Codec ID                         : 55
Codec ID/Hint                    : MP3
Duration                         : 1h 24mn
Bit rate mode                    : Variable
Bit rate                         : 137 Kbps
Channel(s)                       : 2 channels
Sampling rate                    : 48.0 KHz
Resolution                       : 16 bits
Stream size                      : 82.2 MiB (12%)
Alignment                        : Aligned on interleaves
Interleave, duration             : 24 ms (0.60 video frame)
Interleave, preload duration     : 223 ms
Writing library                  : LAME3.89 (alpha)










Bir Part Boyutu: 205 MB - Toplam Boyut: 698 MB





[HIDE]
 
http://www.fileserve.com/file/z7AsnKz/CSHTR.20811.F.EmRebLs.MMU.2010.D.CSHTR.com.part1.rar
http://www.fileserve.com/file/hVbqFE5/CSHTR.20811.F.EmRebLs.MMU.2010.D.CSHTR.com.part2.rar
http://www.fileserve.com/file/3zrubFx/CSHTR.20811.F.EmRebLs.MMU.2010.D.CSHTR.com.part3.rar
http://www.fileserve.com/file/DCn7WtW/CSHTR.20811.F.EmRebLs.MMU.2010.D.CSHTR.com.part4.rar
[/HIDE]



[HIDE]
 
http://bitshare.com/files/08qqxgiv/CSHTR.20811.F.EmRebLs.MMU.2010.D.CSHTR.com.part1.rar.html
http://bitshare.com/files/5nf7kfz9/CSHTR.20811.F.EmRebLs.MMU.2010.D.CSHTR.com.part2.rar.html
http://bitshare.com/files/u8na29b1/CSHTR.20811.F.EmRebLs.MMU.2010.D.CSHTR.com.part3.rar.html
http://bitshare.com/files/g399ocal/CSHTR.20811.F.EmRebLs.MMU.2010.D.CSHTR.com.part4.rar.html
[/HIDE]



[HIDE]
 
http://www.filesonic.com/file/1718776124/CSHTR.20811.F.EmRebLs.MMU.2010.D.CSHTR.com.part1.rar
http://www.filesonic.com/file/1718710174/CSHTR.20811.F.EmRebLs.MMU.2010.D.CSHTR.com.part2.rar
http://www.filesonic.com/file/1718847534/CSHTR.20811.F.EmRebLs.MMU.2010.D.CSHTR.com.part3.rar
http://www.filesonic.com/file/1718752184/CSHTR.20811.F.EmRebLs.MMU.2010.D.CSHTR.com.part4.rar
[/HIDE]



[HIDE]
 
http://www.netload.in/dateiznbJ8fNVJa/CSHTR.20811.F.EmRebLs.MMU.2010.D.CSHTR.com.part1.rar.htm
http://www.netload.in/datei6h5T4GO8u7/CSHTR.20811.F.EmRebLs.MMU.2010.D.CSHTR.com.part2.rar.htm
http://www.netload.in/dateiS5MsOLJIK5/CSHTR.20811.F.EmRebLs.MMU.2010.D.CSHTR.com.part3.rar.htm
http://www.netload.in/dateidUCeGqVHhQ/CSHTR.20811.F.EmRebLs.MMU.2010.D.CSHTR.com.part4.rar.htm
[/HIDE]



[HIDE]
 
http://ul.to/zau1gsmf/CSHTR.20811.F.EmRebLs.MMU.2010.D.CSHTR.com.part1.rar
http://ul.to/81eyw2gd/CSHTR.20811.F.EmRebLs.MMU.2010.D.CSHTR.com.part2.rar
http://ul.to/569eqhyv/CSHTR.20811.F.EmRebLs.MMU.2010.D.CSHTR.com.part3.rar
http://ul.to/7lwnfg3z/CSHTR.20811.F.EmRebLs.MMU.2010.D.CSHTR.com.part4.rar
[/HIDE]



[HIDE]
 
http://www.wupload.com/file/116759480/CSHTR.20811.F.EmRebLs.MMU.2010.D.CSHTR.com.part1.rar
http://www.wupload.com/file/116759481/CSHTR.20811.F.EmRebLs.MMU.2010.D.CSHTR.com.part2.rar
http://www.wupload.com/file/116759482/CSHTR.20811.F.EmRebLs.MMU.2010.D.CSHTR.com.part3.rar
http://www.wupload.com/file/116759483/CSHTR.20811.F.EmRebLs.MMU.2010.D.CSHTR.com.part4.rar
[/HIDE]







www.cshtr.com