emlaklik & sedatyucel

Smoke Screen | 2010 | DVDRip XviD | FS NL FSC | Download | iNDiR

Smoke Screen DVDRip XviD - IGUANA Language | Dublaj Dili : English Release Date | Gösterim Tarihi : 2010 Uploaded By EmRebLs (20 Ağustos 2011 ) Bu paylaşımın toplam boyutu 697 MB olup, Fileserve Bitshare Filesonic Netload Uploaded Wupload sunucularına upload edilmiştir.

Bu konu 930 kez görüntülendi ve 2 yorum aldı ...

    Konuyu değerlendir: Smoke Screen | 2010 | DVDRip XviD | FS NL FSC | Download | iNDiR

    5 üzerinden | Toplam: 0 kişi oyladı ve 930 kez incelendi.


Toplam 3 adet sonuctan sayfa basi 1 ile 3 arasi kadar sonuc gösteriliyor
  1. #1

    Dvdrip Smoke Screen | 2010 | DVDRip XviD | FS NL FSC | Download | iNDiR

    Smoke Screen

    DVDRip XviD - IGUANA

    Language | Dublaj Dili : English
    Release Date | Gösterim Tarihi : 2010
    Uploaded By EmRebLs (20 Ağustos 2011 )

    Bu paylaşımın toplam boyutu 697 MB olup, Fileserve Bitshare Filesonic Netload Uploaded Wupload sunucularına upload edilmiştir.

    Altyazı Takip Linki : http://www.turkcealtyazi.org/mov/176...ke-screen.html







    http://www.imdb.com/title/tt1766093/



    Alıntı

    Yönetmen
    Gary Yates
    Senaryo
    Karen Stillman
    Sandra Brown

    Görüntü Yönetmeni
    C. Kim Miles

    Müzik
    Jonathan Goldsmith


    Oyuncu Rol
    Jaime Pressly Britt Shelley
    Currie Graham Raley Gannon
    Garwin Sanford Gary
    Larissa Laskin Candy
    Blu Mankuma Detective Clark
    Zak Santiago Detective Javier
    Malcolm Stewart Bill Alexander
    Martin Cummins Jay
    Brendan Fletcher Pat, Jr.
    Marie Avgeropoulos Suzi
    Dustin Brooks Cleveland
    Alex Bruhanski Alex
    John Cassini Sam
    Brenda Crichlow Sue (as Brenda M. Crichlow)
    Jason Diablo Morgan
    Smoke Screen Detaylar
    Yapım : 2010

    Ülke : Amerika

    Tür : Suç


     
    
    General
    Complete name                    : iguana-ss.xvid.avi
    Format                           : AVI
    Format/Info                      : Audio Video Interleave
    File size                        : 697 MiB
    Duration                         : 1h 27mn
    Overall bit rate                 : 1 120 Kbps
    Writing application              : VirtualDubMod 1.5.10.2 (build 2540/release)
    Writing library                  : VirtualDubMod build 2540/release
    
    Video
    Format                           : MPEG-4 Visual
    Format profile                   : Streaming [email protected]
    Format settings, BVOP            : Yes
    Format settings, QPel            : No
    Format settings, GMC             : No warppoints
    Format settings, Matrix          : Default
    Muxing mode                      : Packed bitstream
    Codec ID                         : XVID
    Codec ID/Hint                    : XviD
    Duration                         : 1h 27mn
    Bit rate                         : 978 Kbps
    Width                            : 624 pixels
    Height                           : 352 pixels
    Display aspect ratio             : 16/9
    Frame rate                       : 23.976 fps
    Resolution                       : 24 bits
    Colorimetry                      : 4:2:0
    Scan type                        : Progressive
    Bits/(Pixel*Frame)               : 0.186
    Stream size                      : 609 MiB (87%)
    Writing library                  : XviD 64
    
    Audio
    Format                           : MPEG Audio
    Format version                   : Version 1
    Format profile                   : Layer 3
    Codec ID                         : 55
    Codec ID/Hint                    : MP3
    Duration                         : 1h 27mn
    Bit rate mode                    : Variable
    Bit rate                         : 128 Kbps
    Channel(s)                       : 2 channels
    Sampling rate                    : 48.0 KHz
    Resolution                       : 16 bits
    Stream size                      : 80.1 MiB (11%)
    Alignment                        : Aligned on interleaves
    Interleave, duration             : 24 ms (0.58 video frame)
    Interleave, preload duration     : 143 ms
    Writing library                  : LAME3.90.
    Encoding settings                : ABR
    










    Bir Part Boyutu: 205 MB - Toplam Boyut: 697 MB





    [HIDE]
     
    http://www.fileserve.com/file/9ggvecj/CSHTR.20811.F.EmRebLs.Cigara.2010.D.CSHTR.com.part1.rar
    http://www.fileserve.com/file/fmkkaEe/CSHTR.20811.F.EmRebLs.Cigara.2010.D.CSHTR.com.part2.rar
    http://www.fileserve.com/file/CPZcj73/CSHTR.20811.F.EmRebLs.Cigara.2010.D.CSHTR.com.part3.rar
    http://www.fileserve.com/file/zwsf8mk/CSHTR.20811.F.EmRebLs.Cigara.2010.D.CSHTR.com.part4.rar
    [/HIDE]



    [HIDE]
     
    http://bitshare.com/files/xm46l2wi/CSHTR.20811.F.EmRebLs.Cigara.2010.D.CSHTR.com.part1.rar.html
    http://bitshare.com/files/s9q8km74/CSHTR.20811.F.EmRebLs.Cigara.2010.D.CSHTR.com.part2.rar.html
    http://bitshare.com/files/cn3jzjmo/CSHTR.20811.F.EmRebLs.Cigara.2010.D.CSHTR.com.part3.rar.html
    http://bitshare.com/files/16k8p821/CSHTR.20811.F.EmRebLs.Cigara.2010.D.CSHTR.com.part4.rar.html
    [/HIDE]



    [HIDE]
     
    http://www.filesonic.com/file/1717536904/CSHTR.20811.F.EmRebLs.Cigara.2010.D.CSHTR.com.part1.rar
    http://www.filesonic.com/file/1717547784/CSHTR.20811.F.EmRebLs.Cigara.2010.D.CSHTR.com.part2.rar
    http://www.filesonic.com/file/1717575444/CSHTR.20811.F.EmRebLs.Cigara.2010.D.CSHTR.com.part3.rar
    http://www.filesonic.com/file/1717521554/CSHTR.20811.F.EmRebLs.Cigara.2010.D.CSHTR.com.part4.rar
    [/HIDE]



    [HIDE]
     
    http://www.netload.in/dateicf6UQrKKfD/CSHTR.20811.F.EmRebLs.Cigara.2010.D.CSHTR.com.part1.rar.htm
    http://www.netload.in/dateiRSwdAH5e5t/CSHTR.20811.F.EmRebLs.Cigara.2010.D.CSHTR.com.part2.rar.htm
    http://www.netload.in/dateiSbeUvNHt3U/CSHTR.20811.F.EmRebLs.Cigara.2010.D.CSHTR.com.part3.rar.htm
    http://www.netload.in/dateiNEaY9tf3Gs/CSHTR.20811.F.EmRebLs.Cigara.2010.D.CSHTR.com.part4.rar.htm
    [/HIDE]



    [HIDE]
     
    http://ul.to/xmlabrhi/CSHTR.20811.F.EmRebLs.Cigara.2010.D.CSHTR.com.part1.rar
    http://ul.to/3938zj1t/CSHTR.20811.F.EmRebLs.Cigara.2010.D.CSHTR.com.part2.rar
    http://ul.to/z80w9m65/CSHTR.20811.F.EmRebLs.Cigara.2010.D.CSHTR.com.part3.rar
    http://ul.to/cyplrd9y/CSHTR.20811.F.EmRebLs.Cigara.2010.D.CSHTR.com.part4.rar
    [/HIDE]



    [HIDE]
     
    http://www.wupload.com/file/116759434/CSHTR.20811.F.EmRebLs.Cigara.2010.D.CSHTR.com.part1.rar
    http://www.wupload.com/file/116759435/CSHTR.20811.F.EmRebLs.Cigara.2010.D.CSHTR.com.part2.rar
    http://www.wupload.com/file/116759436/CSHTR.20811.F.EmRebLs.Cigara.2010.D.CSHTR.com.part3.rar
    http://www.wupload.com/file/116759437/CSHTR.20811.F.EmRebLs.Cigara.2010.D.CSHTR.com.part4.rar
    [/HIDE]







    www.cshtr.com


    deplase bunu beğendi.

  2. #2

    Standart

    Emegine saglık ..

  3. #3

    Standart

    teşekkürler