emlaklik & sedatyucel

The 5th Quarter | 2010 | DVDRip XviD | FS NL FSC | Download | iNDiR

The 5th Quarter LIMITED DVDRip XviD - PSYCHD Language | Dublaj Dili : English Release Date | Gösterim Tarihi : 2010 Uploaded By EmRebLs (20 Ağustos 2011 ) Bu paylaşımın toplam boyutu 700 GB olup, Fileserve Bitshare Filesonic Netload Uploaded Wupload sunucularına upload edilmiştir.

Bu konu 780 kez görüntülendi ve 1 yorum aldı ...

    Konuyu değerlendir: The 5th Quarter | 2010 | DVDRip XviD | FS NL FSC | Download | iNDiR

    5 üzerinden | Toplam: 0 kişi oyladı ve 780 kez incelendi.


Toplam 2 adet sonuctan sayfa basi 1 ile 2 arasi kadar sonuc gösteriliyor
  1. #1

    Dvdrip The 5th Quarter | 2010 | DVDRip XviD | FS NL FSC | Download | iNDiR

    The 5th Quarter

    LIMITED DVDRip XviD - PSYCHD

    Language | Dublaj Dili : English
    Release Date | Gösterim Tarihi : 2010
    Uploaded By EmRebLs (20 Ağustos 2011 )

    Bu paylaşımın toplam boyutu 700 GB olup, Fileserve Bitshare Filesonic Netload Uploaded Wupload sunucularına upload edilmiştir.

    Altyazı Takip Linki : http://www.turkcealtyazi.org/mov/113...h-quarter.html







    http://www.imdb.com/title/tt1130964/



    Alıntı

    Yapım:
    2009 ~ ABD
    Tür:
    Dram, Spor
    Yönetmen:
    Rick Bieber
    Oyuncular:
    Ryan Merriman, Andie MacDowell, Aidan Quinn, Anessa Ramsey, Michael Harding, Patrick Stogner
    Senaryo:
    Rick Bieber
    Yapımcı:
    Rick Bieber
    Görüntü Yönetmeni:
    Craig Haagensen
    Müzik:
    Andy Mendelson
    Filmin Websitesi:
    www.the5thquartermovie.com
    Bilgi :In February, 2006, young Luke Abbate accepted a ride home from a fellow student following his high-school team practice. In a severe case of irresponsible and reckless teen-age driving, and over the objections of Luke and the other young passengers, the driver lost control of the car at nearly 90 miles-per-hour, spinning off a narrow road and landing in an embankment some seventy feet below. Luke suffered irreparable brain damage, and died in the hospital two days later - just four days before his sixteenth birthday.


     
    
    General
    Complete name                    : the.5th.quarter.2010.limited.dvdrip-psychd.avi
    Format                           : AVI
    Format/Info                      : Audio Video Interleave
    File size                        : 700 MiB
    Duration                         : 1h 29mn
    Overall bit rate                 : 1 092 Kbps
    Writing application              : Nandub v1.0rc2
    Writing library                  : Nandub build 1853/release
    
    Video
    Format                           : MPEG-4 Visual
    Format profile                   : Streaming [email protected]
    Format settings, BVOP            : Yes
    Format settings, QPel            : No
    Format settings, GMC             : No warppoints
    Format settings, Matrix          : Default
    Muxing mode                      : Packed bitstream
    Codec ID                         : XVID
    Codec ID/Hint                    : XviD
    Duration                         : 1h 29mn
    Bit rate                         : 950 Kbps
    Width                            : 624 pixels
    Height                           : 336 pixels
    Display aspect ratio             : 1.857
    Frame rate                       : 23.976 fps
    Resolution                       : 24 bits
    Colorimetry                      : 4:2:0
    Scan type                        : Progressive
    Bits/(Pixel*Frame)               : 0.189
    Stream size                      : 609 MiB (87%)
    Writing library                  : XviD 57
    
    Audio
    Format                           : MPEG Audio
    Format version                   : Version 1
    Format profile                   : Layer 3
    Codec ID                         : 55
    Codec ID/Hint                    : MP3
    Duration                         : 1h 29mn
    Bit rate mode                    : Variable
    Bit rate                         : 129 Kbps
    Nominal bit rate                 : 128 Kbps
    Channel(s)                       : 2 channels
    Sampling rate                    : 48.0 KHz
    Resolution                       : 16 bits
    Stream size                      : 82.9 MiB (12%)
    Alignment                        : Aligned on interleaves
    Interleave, duration             : 24 ms (0.58 video frame)
    Interleave, preload duration     : 136 ms
    Writing library                  : LAME3.90.
    Encoding settings                : ABR
    










    Bir Part Boyutu: 205 MB - Toplam Boyut: 700 GB





    [HIDE]
     
    http://www.fileserve.com/file/QrjpDEe/CSHTR.20811.F.EmRebLs.5.Ceyrek.2010.D.CSHTR.com.part1.rar
    http://www.fileserve.com/file/wFg9aM5/CSHTR.20811.F.EmRebLs.5.Ceyrek.2010.D.CSHTR.com.part2.rar
    http://www.fileserve.com/file/AcmVT4A/CSHTR.20811.F.EmRebLs.5.Ceyrek.2010.D.CSHTR.com.part3.rar
    http://www.fileserve.com/file/RVHnT3k/CSHTR.20811.F.EmRebLs.5.Ceyrek.2010.D.CSHTR.com.part4.rar
    [/HIDE]



    [HIDE]
     
    http://bitshare.com/files/kobml5a5/CSHTR.20811.F.EmRebLs.5.Ceyrek.2010.D.CSHTR.com.part1.rar.html
    http://bitshare.com/files/2p0niq4r/CSHTR.20811.F.EmRebLs.5.Ceyrek.2010.D.CSHTR.com.part2.rar.html
    http://bitshare.com/files/5vj949xp/CSHTR.20811.F.EmRebLs.5.Ceyrek.2010.D.CSHTR.com.part3.rar.html
    http://bitshare.com/files/vzfs4po1/CSHTR.20811.F.EmRebLs.5.Ceyrek.2010.D.CSHTR.com.part4.rar.html
    [/HIDE]



    [HIDE]
     
    http://www.filesonic.com/file/1717345874/CSHTR.20811.F.EmRebLs.5.Ceyrek.2010.D.CSHTR.com.part1.rar
    http://www.filesonic.com/file/1717373104/CSHTR.20811.F.EmRebLs.5.Ceyrek.2010.D.CSHTR.com.part2.rar
    http://www.filesonic.com/file/1717487324/CSHTR.20811.F.EmRebLs.5.Ceyrek.2010.D.CSHTR.com.part3.rar
    http://www.filesonic.com/file/1717285694/CSHTR.20811.F.EmRebLs.5.Ceyrek.2010.D.CSHTR.com.part4.rar
    [/HIDE]



    [HIDE]
     
    http://www.netload.in/datei3NkvcWrE7f/CSHTR.20811.F.EmRebLs.5.Ceyrek.2010.D.CSHTR.com.part1.rar.htm
    http://www.netload.in/dateiXhPfRp6aeU/CSHTR.20811.F.EmRebLs.5.Ceyrek.2010.D.CSHTR.com.part2.rar.htm
    http://www.netload.in/dateiiHJbThXaYk/CSHTR.20811.F.EmRebLs.5.Ceyrek.2010.D.CSHTR.com.part3.rar.htm
    http://www.netload.in/dateii2SewKMJ8P/CSHTR.20811.F.EmRebLs.5.Ceyrek.2010.D.CSHTR.com.part4.rar.htm
    [/HIDE]



    [HIDE]
     
    http://ul.to/inwe366q/CSHTR.20811.F.EmRebLs.5.Ceyrek.2010.D.CSHTR.com.part1.rar
    http://ul.to/6hl8nq4b/CSHTR.20811.F.EmRebLs.5.Ceyrek.2010.D.CSHTR.com.part2.rar
    http://ul.to/c6x8n1mo/CSHTR.20811.F.EmRebLs.5.Ceyrek.2010.D.CSHTR.com.part3.rar
    http://ul.to/mqif7aq3/CSHTR.20811.F.EmRebLs.5.Ceyrek.2010.D.CSHTR.com.part4.rar
    [/HIDE]



    [HIDE]
     
    http://www.wupload.com/file/116759419/CSHTR.20811.F.EmRebLs.5.Ceyrek.2010.D.CSHTR.com.part1.rar
    http://www.wupload.com/file/116759420/CSHTR.20811.F.EmRebLs.5.Ceyrek.2010.D.CSHTR.com.part2.rar
    http://www.wupload.com/file/116759421/CSHTR.20811.F.EmRebLs.5.Ceyrek.2010.D.CSHTR.com.part3.rar
    http://www.wupload.com/file/116759422/CSHTR.20811.F.EmRebLs.5.Ceyrek.2010.D.CSHTR.com.part4.rar
    [/HIDE]







    www.cshtr.com



  2. #2

    Standart

    teşekkürler................... ........