Uninhabited

Yaşanmamış

DVDRip XviD - aAF

Language | Dublaj Dili : English
Release Date | Gösterim Tarihi : 2010
Uploaded By EmRebLs (18 Ağustos 2011 )

Bu paylaşımın toplam boyutu 699 MB olup, Fileserve Bitshare Filesonic Netload Uploaded Wupload sunucularına upload edilmiştir.

Altyazı Takip Linki : http://www.turkcealtyazi.org/mov/145...inhabited.html







http://www.imdb.com/title/tt1459013/



Alıntı

Yapım:
2010 ~ Avustralya
Tür:
Gerilim, Korku
Yönetmen:
Bill Bennett
Oyuncular:
Billy Milionis, Bob Baines, Geraldine Hakewill, Henry James, Tasia Zalar, Terry Siouriounis
Senaryo:
Bill Bennett
Yapımcı:
Silvana Milat, Bill Bennett, Paul Quin
Görüntü Yönetmeni:
Lachlan Milne
Müzik:
Peter Miller
Filmin Websitesi:
www.uninhabitedmovie.com
Süre:
1 saat 33 dk
Genç bir çift,kamp tatili için uzak ve ıssız bir mercan adasına giderler.Ama bu adanın gizemli ve hayaletli bir yer olduğunu bilmemektedirler.


 

General
Complete name                    : aaf-uninhabited.2010.dvdrip.xvid.avi
Format                           : AVI
Format/Info                      : Audio Video Interleave
File size                        : 700 MiB
Duration                         : 1h 23mn
Overall bit rate                 : 1 169 Kbps
Writing application              : VirtualDubMod 1.5.10.2 (build 2540/release)
Writing library                  : VirtualDubMod build 2540/release

Video
Format                           : MPEG-4 Visual
Format profile                   : Streaming [email protected]
Format settings, BVOP            : Yes
Format settings, QPel            : No
Format settings, GMC             : No warppoints
Format settings, Matrix          : Default
Codec ID                         : XVID
Codec ID/Hint                    : XviD
Duration                         : 1h 23mn
Bit rate                         : 1 011 Kbps
Width                            : 624 pixels
Height                           : 352 pixels
Display aspect ratio             : 16/9
Frame rate                       : 25.000 fps
Resolution                       : 24 bits
Colorimetry                      : 4:2:0
Scan type                        : Progressive
Bits/(Pixel Frame)               : 0.184
Stream size                      : 606 MiB (87%)
Writing library                  : XviD 64

Audio
Format                           : MPEG Audio
Format version                   : Version 1
Format profile                   : Layer 3
Codec ID                         : 55
Codec ID/Hint                    : MP3
Duration                         : 1h 23mn
Bit rate mode                    : Variable
Bit rate                         : 144 Kbps
Channel(s)                       : 2 channels
Sampling rate                    : 48.0 KHz
Resolution                       : 16 bits
Stream size                      : 86.5 MiB (12%)
Alignment                        : Aligned on interleaves
Interleave, duration             : 24 ms (0.60 video frame)
Interleave, preload duration     : 151 ms
Writing library                  : LAME3.90 
Encoding settings                : VBR (mtrh)










Bir Part Boyutu: 205 MB - Toplam Boyut: 699 MB





[HIDE]
 
http://www.fileserve.com/file/SAf7sCj/CSHTR.8811.F.EmRebLs.Tenhada.2010.D.CSHTR.com.part1.rar
http://www.fileserve.com/file/R8S6zex/CSHTR.8811.F.EmRebLs.Tenhada.2010.D.CSHTR.com.part2.rar
http://www.fileserve.com/file/WshPGwr/CSHTR.8811.F.EmRebLs.Tenhada.2010.D.CSHTR.com.part3.rar
http://www.fileserve.com/file/MqxEMAx/CSHTR.8811.F.EmRebLs.Tenhada.2010.D.CSHTR.com.part4.rar
[/HIDE]



[HIDE]
 
http://bitshare.com/files/t8iu4zx6/CSHTR.8811.F.EmRebLs.Tenhada.2010.D.CSHTR.com.part1.rar.html
http://bitshare.com/files/3jh749vl/CSHTR.8811.F.EmRebLs.Tenhada.2010.D.CSHTR.com.part2.rar.html
http://bitshare.com/files/7888ul7s/CSHTR.8811.F.EmRebLs.Tenhada.2010.D.CSHTR.com.part3.rar.html
http://bitshare.com/files/s4qahufa/CSHTR.8811.F.EmRebLs.Tenhada.2010.D.CSHTR.com.part4.rar.html
[/HIDE]



[HIDE]
 
http://www.filesonic.com/file/1703312544/CSHTR.8811.F.EmRebLs.Tenhada.2010.D.CSHTR.com.part1.rar
http://www.filesonic.com/file/1703020661/CSHTR.8811.F.EmRebLs.Tenhada.2010.D.CSHTR.com.part2.rar
http://www.filesonic.com/file/1702999281/CSHTR.8811.F.EmRebLs.Tenhada.2010.D.CSHTR.com.part3.rar
http://www.filesonic.com/file/1702998734/CSHTR.8811.F.EmRebLs.Tenhada.2010.D.CSHTR.com.part4.rar
[/HIDE]



[HIDE]
 
http://www.netload.in/dateiudQNNMAqzf/CSHTR.8811.F.EmRebLs.Tenhada.2010.D.CSHTR.com.part1.rar.htm
http://www.netload.in/dateiTTRzSx4l7Z/CSHTR.8811.F.EmRebLs.Tenhada.2010.D.CSHTR.com.part2.rar.htm
http://www.netload.in/dateiMrH17bDsvC/CSHTR.8811.F.EmRebLs.Tenhada.2010.D.CSHTR.com.part3.rar.htm
http://www.netload.in/dateiFYZ7rQQow4/CSHTR.8811.F.EmRebLs.Tenhada.2010.D.CSHTR.com.part4.rar.htm
[/HIDE]



[HIDE]
 
http://ul.to/iua9byg2/CSHTR.8811.F.EmRebLs.Tenhada.2010.D.CSHTR.com.part1.rar
http://ul.to/zae0nua0/CSHTR.8811.F.EmRebLs.Tenhada.2010.D.CSHTR.com.part2.rar
http://ul.to/49iohv42/CSHTR.8811.F.EmRebLs.Tenhada.2010.D.CSHTR.com.part3.rar
http://ul.to/6oqqph8n/CSHTR.8811.F.EmRebLs.Tenhada.2010.D.CSHTR.com.part4.rar
[/HIDE]



[HIDE]
 
http://www.wupload.com/file/116759706/CSHTR.8811.F.EmRebLs.Tenhada.2010.D.CSHTR.com.part1.rar
http://www.wupload.com/file/116759707/CSHTR.8811.F.EmRebLs.Tenhada.2010.D.CSHTR.com.part2.rar
http://www.wupload.com/file/116759708/CSHTR.8811.F.EmRebLs.Tenhada.2010.D.CSHTR.com.part3.rar
http://www.wupload.com/file/116759709/CSHTR.8811.F.EmRebLs.Tenhada.2010.D.CSHTR.com.part4.rar
[/HIDE]







www.cshtr.com