emlaklik & sedatyucel

Lola rennt | Koş Loa Koş | 2011 | DVDRip | FS NL FSC | Download | iNDiR

Lola rennt Koş Loa Koş DVDRip Language | Dublaj Dili : English Release Date | Gösterim Tarihi : 2011 Subtitle | Altyazı : Türkçe (Pakette) Uploaded By EmRebLs (14 Ağustos 2011 )

Bu konu 1162 kez görüntülendi ve 1 yorum aldı ...

    Konuyu değerlendir: Lola rennt | Koş Loa Koş | 2011 | DVDRip | FS NL FSC | Download | iNDiR

    5 üzerinden | Toplam: 0 kişi oyladı ve 1162 kez incelendi.


Toplam 2 adet sonuctan sayfa basi 1 ile 2 arasi kadar sonuc gösteriliyor
  1. #1

    Dvdrip Lola rennt | Koş Loa Koş | 2011 | DVDRip | FS NL FSC | Download | iNDiR

    Lola rennt

    Koş Loa Koş

    DVDRip

    Language | Dublaj Dili : English
    Release Date | Gösterim Tarihi : 2011
    Subtitle | Altyazı : Türkçe (Pakette)
    Uploaded By EmRebLs (14 Ağustos 2011 )

    Bu paylaşımın toplam boyutu 708 MB olup, Fileserve Bitshare Filesonic Netload Uploaded Wupload sunucularına upload edilmiştir.

    Uploader Notu : Film aynı zamanda Run Lola Run adıyla da bilinmektedir...







    http://www.imdb.com/title/tt0130827/



    Alıntı

    Lola rennt Film Ekibi
    Yönetmen
    Tom Tykwer
    Senaryo
    Tom Tykwer

    Görüntü Yönetmeni
    Frank Griebe

    Müzik
    Reinhold Heil
    Johnny Klimek
    Tom Tykwer


    Oyuncu Rol
    Franka Potente Lola
    Moritz Bleibtreu Manni
    Herbert Knaup Vater
    Nina Petri Jutta Hansen
    Armin Rohde Herr Schuster
    Joachim Król Norbert von Au
    Ludger Pistor Herr Meier
    Suzanne von Borsody Frau Jäger
    Sebastian Schipper Mike
    Julia Lindig Doris
    Lars Rudolph Herr Kruse
    Andreas Petri Sanitäter
    Klaus Müller Croupier
    Utz Krause Casino-Manager
    Beate Finckh Casino-Kassiererin
    Lola rennt Detaylar
    Türkçe Adı
    Koş Lola

    Gösterim Tarihi
    31 Mayıs 2002

    Yapım : 1998

    Ülke : Almanya

    Tür : Gerilim

    Süre : 81 dakika
    Bilgi :Yer Berlin. Bir yaz günü 20 dakika içinde aşk, yaşam ve ölümle ilgili karar verilmesi gerekmektedir. Lola ile Manni birbirine aşık ve 20'li yaşların sonunda iki gençtir. Manni üçkağıtçı bir araba satıcısında, para taşıyan kurye olarak çalışmaktadır. O gün herşey ters gider. Metroda bilet kontrol eden kişinin yanından koşarak geçer ve içinde 100 bin DM para bulunan torbayı kaybeder. 20 dakika sonra patronu parayı almaya gelecektir.

    Eğer Manni parayı bulamazsa ölümle yüzleşecek. Lola kafasını çalıştırmaya başlar. 20 dakika içinde parayı bulacak ve Manni'nin yaşamını kurtaracak. Lola'nın aklına gelen fikir heyecan vericidir. Evden koşarak çıkar ve Berlin'în sokaklarında koşmaya başlar. Lola kendi yaşamı, Manni'nin yaşamı ve aşkı için koşar.


     
    
    General
    Complete name                    : Lola Rennt.avi
    Format                           : AVI
    Format/Info                      : Audio Video Interleave
    File size                        : 702 MiB
    Duration                         : 1h 16mn
    Overall bit rate                 : 1 285 Kbps
    Writing application              : VirtualDubMod 1.5.10.2 (build 2540/release)
    Writing library                  : VirtualDubMod build 2540/release
    
    Video
    Format                           : MPEG-4 Visual
    Format profile                   : Streaming [email protected]
    Format settings, BVOP            : Yes
    Format settings, QPel            : No
    Format settings, GMC             : No warppoints
    Format settings, Matrix          : Default
    Muxing mode                      : Packed bitstream
    Codec ID                         : XVID
    Codec ID/Hint                    : XviD
    Duration                         : 1h 16mn
    Bit rate                         : 1 148 Kbps
    Width                            : 688 pixels
    Height                           : 368 pixels
    Display aspect ratio             : 1.870
    Frame rate                       : 25.000 fps
    Resolution                       : 24 bits
    Colorimetry                      : 4:2:0
    Scan type                        : Progressive
    Bits/(Pixel*Frame)               : 0.181
    Stream size                      : 627 MiB (89%)
    Writing library                  : XviD 1.1.0 (UTC 2005-11-22)
    
    Audio
    Format                           : MPEG Audio
    Format version                   : Version 1
    Format profile                   : Layer 3
    Codec ID                         : 55
    Codec ID/Hint                    : MP3
    Duration                         : 1h 16mn
    Bit rate mode                    : Constant
    Bit rate                         : 128 Kbps
    Channel(s)                       : 2 channels
    Sampling rate                    : 48.0 KHz
    Resolution                       : 16 bits
    Stream size                      : 69.9 MiB (10%)
    Alignment                        : Aligned on interleaves
    Interleave, duration             : 40 ms (1.00 video frame)
    Interleave, preload duration     : 504 ms
    










    Bir Part Boyutu: 205 MB - Toplam Boyut: 708 MB





    [HIDE]
     
    http://www.fileserve.com/file/jVaDJpD/CSHTR.14811.F.EmRebLs.KosLola.1998.D.CSHTR.com.part1.rar
    http://www.fileserve.com/file/dvAgfhr/CSHTR.14811.F.EmRebLs.KosLola.1998.D.CSHTR.com.part2.rar
    http://www.fileserve.com/file/TVbZ7j3/CSHTR.14811.F.EmRebLs.KosLola.1998.D.CSHTR.com.part3.rar
    http://www.fileserve.com/file/Qm74xRD/CSHTR.14811.F.EmRebLs.KosLola.1998.D.CSHTR.com.part4.rar
    [/HIDE]



    [HIDE]
     
    http://bitshare.com/files/uprztghq/CSHTR.14811.F.EmRebLs.KosLola.1998.D.CSHTR.com.part1.rar.html
    http://bitshare.com/files/cy2cei2y/CSHTR.14811.F.EmRebLs.KosLola.1998.D.CSHTR.com.part3.rar.html
    http://bitshare.com/files/nk0yg0pb/CSHTR.14811.F.EmRebLs.KosLola.1998.D.CSHTR.com.part2.rar.html
    http://bitshare.com/files/yopn8s7c/CSHTR.14811.F.EmRebLs.KosLola.1998.D.CSHTR.com.part4.rar.html
    [/HIDE]



    [HIDE]
     
    http://www.filesonic.com/file/1668714274/CSHTR.14811.F.EmRebLs.KosLola.1998.D.CSHTR.com.part1.rar
    http://www.filesonic.com/file/1668731334/CSHTR.14811.F.EmRebLs.KosLola.1998.D.CSHTR.com.part2.rar
    http://www.filesonic.com/file/1668714314/CSHTR.14811.F.EmRebLs.KosLola.1998.D.CSHTR.com.part3.rar
    http://www.filesonic.com/file/1668710564/CSHTR.14811.F.EmRebLs.KosLola.1998.D.CSHTR.com.part4.rar
    [/HIDE]



    [HIDE]
     
    http://www.netload.in/dateiIIrsLu8D95/CSHTR.14811.F.EmRebLs.KosLola.1998.D.CSHTR.com.part1.rar.htm
    http://www.netload.in/dateind7Uq5CO7n/CSHTR.14811.F.EmRebLs.KosLola.1998.D.CSHTR.com.part2.rar.htm
    http://www.netload.in/dateikNrEm5VCca/CSHTR.14811.F.EmRebLs.KosLola.1998.D.CSHTR.com.part3.rar.htm
    http://www.netload.in/dateitsqYWXHYXn/CSHTR.14811.F.EmRebLs.KosLola.1998.D.CSHTR.com.part4.rar.htm
    [/HIDE]



    [HIDE]
     
    http://ul.to/q3jwdw74/CSHTR.14811.F.EmRebLs.KosLola.1998.D.CSHTR.com.part1.rar
    http://ul.to/6jl0qz3m/CSHTR.14811.F.EmRebLs.KosLola.1998.D.CSHTR.com.part2.rar
    http://ul.to/q5p1qxzc/CSHTR.14811.F.EmRebLs.KosLola.1998.D.CSHTR.com.part3.rar
    http://ul.to/8m4rmwkk/CSHTR.14811.F.EmRebLs.KosLola.1998.D.CSHTR.com.part4.rar
    [/HIDE]



    [HIDE]
     
    http://www.wupload.com/file/94842520/CSHTR.14811.F.EmRebLs.KosLola.1998.D.CSHTR.com.part1.rar
    http://www.wupload.com/file/94842537/CSHTR.14811.F.EmRebLs.KosLola.1998.D.CSHTR.com.part2.rar
    http://www.wupload.com/file/94842578/CSHTR.14811.F.EmRebLs.KosLola.1998.D.CSHTR.com.part3.rar
    http://www.wupload.com/file/94843515/CSHTR.14811.F.EmRebLs.KosLola.1998.D.CSHTR.com.part4.rar
    [/HIDE]







    www.cshtr.com


    Sinanmania bunu beğendi.

  2. #2

    Standart

    teşekkürler..
    Sinanmania bunu beğendi.