Submarine

DVDRip XviD - LAP

Language | Dublaj Dili : English
Release Date | Gösterim Tarihi : 2010
Uploaded By EmRebLs (07 Ağustos 2011 )

Bu paylaşımın toplam boyutu 706 MB olup, Fileserve Bitshare Filesonic Netload Wupload sunucularına upload edilmiştir.

Uploader Notu : Linkler uyumludur.İyi seyirler...

Altyazı Takip Linki : http://divxplanet.com/sub/m/28761/Submarine.html







http://www.imdb.com/title/tt1440292/



Alıntı

Submarine Film Ekibi
Yönetmen
Richard Ayoade
Senaryo
Richard Ayoade
Joe Dunthorne

Görüntü Yönetmeni
Erik Wilson

Müzik
Andrew Hewitt


Oyuncu Rol
Noah Taylor Lloyd Tate
Paddy Considine Graham Purvis
Craig Roberts Oliver Tate
Yasmin Paige Jordana Bevan
Sally Hawkins Jill Tate
Darren Evans Chips
Osian Cai Dulais Mark Pritchard
Lily McCann Zoe Preece
Otis Lloyd Keiron
Elinor Crawley Abby Smuts
Steffan Rhodri Mr. Davey
Gemma Chan Kim-Lin
Melanie Walters Jude Bevan
Sion Tudor Owen Brynn Bevan
Adrienne O'Sullivan Jackie
Submarine Detaylar
Yapım : 2010

Ülke : İngiltere Amerika

Tür : Komedi, Dram

Süre : 97 dakika
Bilgi :15-year-old Oliver Tate has two objectives: To lose his virginity before his next birthday, and to extinguish the flame between his mother and an ex-lover who has resurfaced in her life.


 

Format                           : AVI
Format/Info                      : Audio Video Interleave
File size                        : 699 MiB
Duration                         : 1h 32mn
Overall bit rate                 : 1 052 Kbps

Video
Format                           : MPEG-4 Visual
Format profile                   : Streaming [email protected]
Format settings, BVOP            : Yes
Format settings, QPel            : No
Format settings, GMC             : No warppoints
Format settings, Matrix          : Default
Codec ID                         : XVID
Codec ID/Hint                    : XviD
Duration                         : 1h 32mn
Bit rate                         : 888 Kbps
Width                            : 624 pixels
Height                           : 336 pixels
Display aspect ratio             : 1.857
Frame rate                       : 25.000 fps
Resolution                       : 24 bits
Colorimetry                      : 4:2:0
Scan type                        : Progressive
Bits/(Pixel*Frame)               : 0.169
Stream size                      : 591 MiB (84%)
Writing library                  : XviD 1.2.1 (UTC 2008-12-04)

Audio
Format                           : MPEG Audio
Format version                   : Version 1
Format profile                   : Layer 3
Codec ID                         : 55
Codec ID/Hint                    : MP3
Duration                         : 1h 32mn
Bit rate mode                    : Variable
Bit rate                         : 150 Kbps
Minimum bit rate                 : 32.0 Kbps
Channel(s)                       : 2 channels
Sampling rate                    : 48.0 KHz
Resolution                       : 16 bits
Stream size                      : 99.9 MiB (14%)
Alignment                        : Aligned on interleaves
Interleave, duration             : 24 ms (0.60 video frame)
Interleave, preload duration     : 117 ms
Writing library                  : LAME3.98r
Encoding settings                : VBR (mtrh)











Bir Part Boyutu: 205 MB - Toplam Boyut: 706 MB





[HIDE]
 
http://www.fileserve.com/file/YsvCYbU/CSHTR.7811.F.EmRebLs.DnzAlt.2010.D.CSHTR.com.part1.rar
http://www.fileserve.com/file/GzbXf8e/CSHTR.7811.F.EmRebLs.DnzAlt.2010.D.CSHTR.com.part2.rar
http://www.fileserve.com/file/dAj3bft/CSHTR.7811.F.EmRebLs.DnzAlt.2010.D.CSHTR.com.part3.rar
http://www.fileserve.com/file/KYKmr5W/CSHTR.7811.F.EmRebLs.DnzAlt.2010.D.CSHTR.com.part4.rar
[/HIDE]



[HIDE]
 
http://bitshare.com/files/6rsbkdhs/CSHTR.7811.F.EmRebLs.DnzAlt.2010.D.CSHTR.com.part1.rar.html
http://bitshare.com/files/lkb6zwfa/CSHTR.7811.F.EmRebLs.DnzAlt.2010.D.CSHTR.com.part2.rar.html
http://bitshare.com/files/43k3fvzj/CSHTR.7811.F.EmRebLs.DnzAlt.2010.D.CSHTR.com.part3.rar.html
http://bitshare.com/files/afvkvyqx/CSHTR.7811.F.EmRebLs.DnzAlt.2010.D.CSHTR.com.part4.rar.html
[/HIDE]



[HIDE]
 
http://www.filesonic.com/file/1615527011/CSHTR.7811.F.EmRebLs.DnzAlt.2010.D.CSHTR.com.part1.rar
http://www.filesonic.com/file/1615527371/CSHTR.7811.F.EmRebLs.DnzAlt.2010.D.CSHTR.com.part2.rar
http://www.filesonic.com/file/1615527381/CSHTR.7811.F.EmRebLs.DnzAlt.2010.D.CSHTR.com.part3.rar
http://www.filesonic.com/file/1615527321/CSHTR.7811.F.EmRebLs.DnzAlt.2010.D.CSHTR.com.part4.rar
[/HIDE]



[HIDE]
 
http://www.netload.in/dateiiIQ9RWxqH3/CSHTR.7811.F.EmRebLs.DnzAlt.2010.D.CSHTR.com.part1.rar.htm
http://www.netload.in/dateiDyNd4x4gad/CSHTR.7811.F.EmRebLs.DnzAlt.2010.D.CSHTR.com.part2.rar.htm
http://www.netload.in/dateivmAr1O7pGc/CSHTR.7811.F.EmRebLs.DnzAlt.2010.D.CSHTR.com.part3.rar.htm
http://www.netload.in/dateitiEjOn6paq/CSHTR.7811.F.EmRebLs.DnzAlt.2010.D.CSHTR.com.part4.rar.htm
[/HIDE]



[HIDE]
 
http://www.wupload.com/file/82375923/CSHTR.7811.F.EmRebLs.DnzAlt.2010.D.CSHTR.com.part1.rar
http://www.wupload.com/file/82375900/CSHTR.7811.F.EmRebLs.DnzAlt.2010.D.CSHTR.com.part2.rar
http://www.wupload.com/file/82375907/CSHTR.7811.F.EmRebLs.DnzAlt.2010.D.CSHTR.com.part3.rar
http://www.wupload.com/file/82375935/CSHTR.7811.F.EmRebLs.DnzAlt.2010.D.CSHTR.com.part4.rar
[/HIDE]







www.cshtr.com