Yamakasi

DVDRip

Language | Dublaj Dili : french
Release Date | Gösterim Tarihi : 2001
Subtitle | Altyazı : English (Pakette)
Uploaded By geompac (04 Ağustos 2011 )

Bu paylaşımın toplam boyutu 700 MB olup, Fileserve Bitshare Filesonic Netload Uploaded Uploading sunucularına upload edilmiştir.







http://www.imdb.com/title/tt0267129/



 

Yamakasi 2001 DVDRip Xvid fasamoo LKRG


Format : AVI
Format/Info : Audio Video Interleave
File size : 555 MiB
Duration : 1h 26mn
Overall bit rate : 893 Kbps
Language : French
Subtitles : English(*.srt)
Genre : Action | Drama | Crime

Video
ID : 0
Format : MPEG-4 Visual
Format profile : Advanced [email protected]
Format settings, BVOP : Yes
Format settings, QPel : No
Format settings, GMC : No warppoints
Format settings, Matrix : Custom
Codec ID : XVID
Codec ID/Hint : XviD
Duration : 1h 26mn
Bit rate : 756 Kbps
Width : 416 pixels
Height : 320 pixels
Display aspect ratio : 1.300
Frame rate : 25.000 fps
Color space : YUV
Chroma subsampling : 4:2:0
Bit depth : 8 bits
Scan type : Progressive
Bits/(Pixel*Frame) : 0.227
Stream size : 470 MiB (85%)
Writing library : XviD 1.2.1 (UTC 2008-12-04)

Audio
ID : 1
Format : MPEG Audio
Format version : Version 1
Format profile : Layer 3
Mode : Joint stereo
Mode extension : MS Stereo
Codec ID : 55
Codec ID/Hint : MP3
Duration : 1h 26mn
Bit rate mode : Constant
Bit rate : 128 Kbps
Channel(s) : 2 channels
Sampling rate : 48.0 KHz
Stream size : 79.5 MiB (14%)
Alignment : Split accross interleaves
Interleave, duration : 40 ms (1.00 video frame)
Interleave, preload duration : 500 ms
Writing library : LAME3.98.2




Bir Part Boyutu: 400 MB - Toplam Boyut: 700 MB





[HIDE]
 
http://www.fileserve.com/file/3Z4ugHC/CSHTR.2811.F.geompac.Ziplayanadamlar.D.cshtr.com.part1.rar
http://www.fileserve.com/file/RjYd8Vg/CSHTR.2811.F.geompac.Ziplayanadamlar.D.cshtr.com.part2.rar
[/HIDE]



[HIDE]
 
http://bitshare.com/files/dac6fte2/CSHTR.2811.F.geompac.Ziplayanadamlar.D.cshtr.com.part1.rar.html
http://bitshare.com/files/v6hff7iq/CSHTR.2811.F.geompac.Ziplayanadamlar.D.cshtr.com.part2.rar.html
[/HIDE]



[HIDE]
 
http://www.filesonic.com/file/1583561771/CSHTR.2811.F.geompac.Ziplayanadamlar.D.cshtr.com.part1.rar
http://www.filesonic.com/file/1583553661/CSHTR.2811.F.geompac.Ziplayanadamlar.D.cshtr.com.part2.rar
[/HIDE]



[HIDE]
 
http://www.netload.in/dateiVDHxpnOKee/CSHTR.2811.F.geompac.Ziplayanadamlar.D.cshtr.com.part1.rar.htm
http://www.netload.in/dateiEJk2yUPzTS/CSHTR.2811.F.geompac.Ziplayanadamlar.D.cshtr.com.part2.rar.htm
[/HIDE]



[HIDE]
 
http://ul.to/a6qtwetb/CSHTR.2811.F.geompac.Ziplayanadamlar.D.cshtr.com.part1.rar
http://ul.to/k15pc6fu/CSHTR.2811.F.geompac.Ziplayanadamlar.D.cshtr.com.part2.rar
[/HIDE]



[HIDE]
 
http://www.wupload.com/file/75446750/CSHTR.2811.F.geompac.Ziplayanadamlar.D.cshtr.com.part1.rar
http://www.wupload.com/file/75446709/CSHTR.2811.F.geompac.Ziplayanadamlar.D.cshtr.com.part2.rar
[/HIDE]




www.cshtr.com