Dylan Dog Dead of Night

DVDRip XviD

Language | Dublaj Dili : English
Release Date | Gösterim Tarihi : 2010
Uploaded By (30 Aralık 1899 )

Bu paylaşımın toplam boyutu 1.40 GB olup, Fileserve Bitshare Filesonic Netload sunucularına upload edilmiştir.

Altyazı Takip Linki : Dylan Dog: Dead of Night (2010) - TurkceAltyazi.org







Dylan Dog: Dead of Night (2010) - IMDb



Alıntı

Tür : Gerilim / Komedi / Gizem
Gösterim Tarihi : 24 Haziran 2011
Yönetmen : Kevin Munroe
Senaryo : Thomas Dean Donnelly , Joshua Oppenheimer
Yapım : 2010, ABD

Oyuncular

Brandon Routh (Dylan Dog) , Peter Stormare (Gabriel) , Sam Huntington (Marcus) , Taye Diggs (Vargas) , Brian Steele (Tatooed Zombie)
Londra'dan New York'a taşınan hikayede, doğaüstü olayları araştıran Dylan Dog, babasının gizemli bir yaratık tarafından öldürüldüğünü düşünen genç ve çekici bir kadının isteği üzerine araştırmalarına yeniden başlayacaktır.


 

::::::::::::  EP1C Presents  ::::::::::::

::File:: Dylan.Dog.Dead.of.Night.2011.DVDRip.AC3.XViD-EP1C

::Video Source:: DVD

::Language:::::: English
::IMDB:::::::::: http://www.imdb.com/title/tt1013860/

The adventures of supernatural private eye, Dylan Dog, who seeks
out the monsters of the Louisiana bayou in his signature red shirt,
black jacket, and blue jeans.

::Specs:::::::::

Format                           : AVI
Format/Info                      : Audio Video Interleave
File size                        : 1.37 GiB
Duration                         : 1h 47mn
Overall bit rate                 : 1 819 Kbps
Writing application              : VirtualDubMod 1.5.10.2 (build 2540/release)
Writing library                  : VirtualDubMod build 2540/release

Video
ID                               : 0
Format                           : MPEG-4 Visual
Format profile                   : Advanced [email protected]
Format settings, BVOP            : Yes
Format settings, QPel            : No
Format settings, GMC             : No warppoints
Format settings, Matrix          : Default (MPEG)
Muxing mode                      : Packed bitstream
Codec ID                         : XVID
Codec ID/Hint                    : XviD
Duration                         : 1h 47mn
Bit rate                         : 1 425 Kbps
Width                            : 640 pixels
Height                           : 272 pixels
Display aspect ratio             : 2.35:1
Frame rate                       : 23.976 fps
Color space                      : YUV
Chroma subsampling               : 4:2:0
Bit depth                        : 8 bits
Scan type                        : Progressive
Bits/(Pixel*Frame)               : 0.341
Stream size                      : 1.07 GiB (78%)
Writing library                  : XviD 58

Audio
ID                               : 1
Format                           : AC-3
Format/Info                      : Audio Coding 3
Mode extension                   : CM (complete main)
Codec ID                         : 2000
Duration                         : 1h 47mn
Bit rate mode                    : Constant
Bit rate                         : 384 Kbps
Channel(s)                       : 6 channels
Channel positions                : Front: L C R, Side: L R, LFE
Sampling rate                    : 48.0 KHz
Bit depth                        : 16 bits
Stream size                      : 296 MiB (21%)
Alignment                        : Split accross interleaves
Interleave, duration             : 42 ms (1.00 video frame)
Interleave, preload duration     : 500 ms












Bir Part Boyutu: 400 MB - Toplam Boyut: 1.40 GB





[HIDE]
 
http://www.fileserve.com/file/Ge9TPZS/CSHTR.17611.F.geompac.DylDogNig.2011.D.cshtr.com.part1.rar
http://www.fileserve.com/file/HzpqKkn/CSHTR.17611.F.geompac.DylDogNig.2011.D.cshtr.com.part2.rar
http://www.fileserve.com/file/ChWWwte/CSHTR.17611.F.geompac.DylDogNig.2011.D.cshtr.com.part3.rar
http://www.fileserve.com/file/eNTN8Ck/CSHTR.17611.F.geompac.DylDogNig.2011.D.cshtr.com.part4.rar
[/HIDE]



[HIDE]
 
http://bitshare.com/files/ybldhdu4/CSHTR.17611.F.geompac.DylDogNig.2011.D.cshtr.com.part1.rar.html
http://bitshare.com/files/2saeexaz/CSHTR.17611.F.geompac.DylDogNig.2011.D.cshtr.com.part2.rar.html
http://bitshare.com/files/72afqjrm/CSHTR.17611.F.geompac.DylDogNig.2011.D.cshtr.com.part3.rar.html
http://bitshare.com/files/j7qvsp5h/CSHTR.17611.F.geompac.DylDogNig.2011.D.cshtr.com.part4.rar.html
[/HIDE]



[HIDE]
 
http://www.filesonic.com/file/1237949981/CSHTR.17611.F.geompac.DylDogNig.2011.D.cshtr.com.part1.rar
http://www.filesonic.com/file/1237950131/CSHTR.17611.F.geompac.DylDogNig.2011.D.cshtr.com.part2.rar
http://www.filesonic.com/file/1237950051/CSHTR.17611.F.geompac.DylDogNig.2011.D.cshtr.com.part3.rar
http://www.filesonic.com/file/1237949381/CSHTR.17611.F.geompac.DylDogNig.2011.D.cshtr.com.part4.rar
[/HIDE]



[HIDE]
 
http://www.netload.in/dateilRISaJCnIt/CSHTR.17611.F.geompac.DylDogNig.2011.D.cshtr.com.part1.rar.htm
http://www.netload.in/dateitlXfbEZ9lk/CSHTR.17611.F.geompac.DylDogNig.2011.D.cshtr.com.part2.rar.htm
http://www.netload.in/dateiHM3SIcPDQC/CSHTR.17611.F.geompac.DylDogNig.2011.D.cshtr.com.part3.rar.htm
http://www.netload.in/dateiucwrSnJ0fQ/CSHTR.17611.F.geompac.DylDogNig.2011.D.cshtr.com.part4.rar.htm
[/HIDE]

[HIDE]
 
http://www.wupload.com/file/20312535/CSHTR.17611.F.geompac.DylDogNig.2011.D.cshtr.com.part1.rar
http://www.wupload.com/file/20312502/CSHTR.17611.F.geompac.DylDogNig.2011.D.cshtr.com.part2.rar
http://www.wupload.com/file/20367502/CSHTR.17611.F.geompac.DylDogNig.2011.D.cshtr.com.part3.rar
http://www.wupload.com/file/20312667/CSHTR.17611.F.geompac.DylDogNig.2011.D.cshtr.com.part4.rar
[/HIDE]







www.cshtr.com