emlaklik & sedatyucel

Please Remove Your Shoes | 2010 | DVDRip | FS NL FSC | Download | iNDiR

Please Remove Your Shoes DVDRip Language | Dublaj Dili : English Release Date | Gösterim Tarihi : 2010 Uploaded By aswere (12 Nisan 2011 ) Bu paylaşımın toplam boyutu 700 MB olup, Fileserve Bitshare Filesonic Netload Enterupload sunucularına upload edilmiştir.

Bu konu 1215 kez görüntülendi ve 1 yorum aldı ...

    Konuyu değerlendir: Please Remove Your Shoes | 2010 | DVDRip | FS NL FSC | Download | iNDiR

    5 üzerinden | Toplam: 0 kişi oyladı ve 1215 kez incelendi.


Toplam 2 adet sonuctan sayfa basi 1 ile 2 arasi kadar sonuc gösteriliyor
  1. #1

    Dvdrip Please Remove Your Shoes | 2010 | DVDRip | FS NL FSC | Download | iNDiR

    Please Remove Your Shoes

    DVDRip

    Language | Dublaj Dili : English
    Release Date | Gösterim Tarihi : 2010
    Uploaded By aswere (12 Nisan 2011 )

    Bu paylaşımın toplam boyutu 700 MB olup, Fileserve Bitshare Filesonic Netload Enterupload sunucularına upload edilmiştir.

    Altyazı Takip Linki : Please Remove Your Shoes (2010) - TurkceAltyazi.org







    Please Remove Your Shoes (2010) - IMDb



    Alıntı

    Genre: Documentary
    iMDB Rating: 6.3 /10 (5 votes)
    Directed by: Rob DelGaudio


     
    
    #
    File size                        : 715 MiB
    #
    Duration                         : 1h 31mn
    #
    Overall bit rate                 : 1 090 Kbps
    #
     
    #
    Video
    #
    Codec ID                         : XVID
    #
    Codec ID/Hint                    : XviD
    #
    Duration                         : 1h 31mn
    #
    Bit rate                         : 956 Kbps
    #
    Width                            : 720 pixels
    #
    Height                           : 304 pixels
    #
    Display aspect ratio             : 2.35:1
    #
    Frame rate                       : 25.000 fps
    #
    Color space                      : YUV
    #
    Chroma subsampling               : 4:2:0
    #
    Bit depth                        : 8 bits
    #
    Scan type                        : Progressive
    #
    Compression mode                 : Lossy
    #
    Bits/(Pixel*Frame)               : 0.175
    #
    Stream size                      : 627 MiB (88%)
    #
    Writing library                  : XviD 1.2.1 (UTC 2008-12-04)
    #
     
    #
    Audio
    #
    Codec ID                         : 55
    #
    Codec ID/Hint                    : MP3
    #
    Duration                         : 1h 31mn
    #
    Bit rate mode                    : Constant
    #
    Bit rate                         : 128 Kbps
    #
    Channel(s)                       : 2 channels
    #
    Sampling rate                    : 48.0 KHz
    #
    Compression mode                 : Lossy
    #
    Stream size                      : 84.0 MiB (12%)
    #
    Alignment                        : Aligned on interleaves
    #
    Interleave, duration             : 160 ms (4.00 video frames)
    #
    Interleave, preload duration     : 216 ms
    #
    Title                            : VTS_01_1 T80 2_0ch 192Kbps DELAY 0ms
    #
    Writing library                  : LAME3.98r
    #
    Encoding settings                : -m j -V 4 -q 2 -lowpass 17 -b 128
    #
     
    




    Bir Part Boyutu: 200 MB - Toplam Boyut: 700 MB





    [HIDE]
     
    http://www.fileserve.com/file/AQM7rPY/www.cshtr.com_plsrmvyshsdv_aswere.part1.rar
    http://www.fileserve.com/file/6cjfPvG/www.cshtr.com_plsrmvyshsdv_aswere.part2.rar
    http://www.fileserve.com/file/Rr6Dzew/www.cshtr.com_plsrmvyshsdv_aswere.part3.rar
    http://www.fileserve.com/file/VdAdZjW/www.cshtr.com_plsrmvyshsdv_aswere.part4.rar
    [/HIDE]



    [HIDE]
     
    http://bitshare.com/files/37uguj3m/www.cshtr.com_plsrmvyshsdv_aswere.part1.rar.html
    http://bitshare.com/files/cg02rcfp/www.cshtr.com_plsrmvyshsdv_aswere.part2.rar.html
    http://bitshare.com/files/75rd4zx0/www.cshtr.com_plsrmvyshsdv_aswere.part3.rar.html
    http://bitshare.com/files/82v73s98/www.cshtr.com_plsrmvyshsdv_aswere.part4.rar.html
    [/HIDE]



    [HIDE]
     
    http://www.filesonic.com/file/594969184/www.cshtr.com_plsrmvyshsdv_aswere.part1.rar
    http://www.filesonic.com/file/594966504/www.cshtr.com_plsrmvyshsdv_aswere.part2.rar
    http://www.filesonic.com/file/594969654/www.cshtr.com_plsrmvyshsdv_aswere.part3.rar
    http://www.filesonic.com/file/594959941/www.cshtr.com_plsrmvyshsdv_aswere.part4.rar
    [/HIDE]



    [HIDE]
     
    http://www.netload.in/dateiRFEBSnxauY/www.cshtr.com_plsrmvyshsdv_aswere.part1.rar.htm
    http://www.netload.in/datei59nGQU3fhP/www.cshtr.com_plsrmvyshsdv_aswere.part2.rar.htm
    http://www.netload.in/dateic6CRpTYIfm/www.cshtr.com_plsrmvyshsdv_aswere.part3.rar.htm
    http://www.netload.in/dateiMpkqWHUElP/www.cshtr.com_plsrmvyshsdv_aswere.part4.rar.htm
    [/HIDE]



    [HIDE]
     
    http://www.enterupload.com/893x9ze7tcjb/www.cshtr.com_plsrmvyshsdv_aswere.part1.rar.html
    http://www.enterupload.com/i33m643hcpbs/www.cshtr.com_plsrmvyshsdv_aswere.part2.rar.html
    http://www.enterupload.com/s6u1o1z3r2pk/www.cshtr.com_plsrmvyshsdv_aswere.part3.rar.html
    http://www.enterupload.com/fniwk5uiigm6/www.cshtr.com_plsrmvyshsdv_aswere.part4.rar.html
    [/HIDE]







    www.cshtr.com


    CaSh bunu beğendi.

  2. #2

    Standart

    teşekkürler aswere

Benzer Konular

  1. Cevap: 1
    Son Mesaj : 26.Aralık.2012, 08:55
  2. Cevap: 18
    Son Mesaj : 03.Haziran.2012, 14:34
  3. Please Remove Your Shoes | 2010
    Konu Sahibi aswere Forum Portal Film
    Cevap: 0
    Son Mesaj : 12.Nisan.2011, 23:17
  4. Cevap: 0
    Son Mesaj : 19.Mart.2011, 17:06
  5. Cevap: 28
    Son Mesaj : 06.Ağustos.2010, 15:59