emlaklik & sedatyucel

Unstoppable | 2010 | DVDRip.XviD-VAMPS | HF | FS | NL | Download | iNDiR

Unstoppable Durdurulamaz DVDRip.XviD-VAMPS Language | Dublaj Dili : English Release Date | Gösterim Tarihi : 2010 Upload By geompac (17 Aralık 2010 )

Bu konu 9992 kez görüntülendi ve 24 yorum aldı ...

    Konuyu değerlendir: Unstoppable | 2010 | DVDRip.XviD-VAMPS | HF | FS | NL | Download | iNDiR

    5 üzerinden | Toplam: 0 kişi oyladı ve 9992 kez incelendi.


Sayfa 1 Toplam 3 Sayfadan 123 SonuncuSonuncu
Toplam 25 adet sonuctan sayfa basi 1 ile 10 arasi kadar sonuc gösteriliyor
  1. #1

    Genel Yönetici

    Yeni Unstoppable | 2010 | DVDRip.XviD-VAMPS | HF | FS | NL | Download | iNDiR

    Unstoppable

    Durdurulamaz

    DVDRip.XviD-VAMPS

    Language | Dublaj Dili : English
    Release Date | Gösterim Tarihi : 2010
    Upload By geompac (17 Aralık 2010 )







    http://www.imdb.com/title/tt0477080/



    Alıntı

    Video
    ID : 0
    Format : MPEG-4 Visual
    Format profile : Advanced [email protected]
    Format settings, BVOP : Yes
    Format settings, QPel : No
    Format settings, GMC : No warppoints
    Format settings, Matrix : Default (H.263)
    Codec ID : XVID
    Codec ID/Hint : XviD
    Duration : 1h 38mn
    Bit rate : 845 Kbps
    Width : 640 pixels
    Height : 272 pixels
    Display aspect ratio : 2.35:1
    Frame rate : 23.976 fps
    Color space : YUV
    Chroma subsampling : 4:2:0
    Bit depth : 8 bits
    Scan type : Progressive
    Bits/(Pixel*Frame) : 0.217
    Stream size : 603 MiB (86%)
    Writing library : XviD 1.2.2

    Audio
    ID : 1
    Format : MPEG Audio
    Format version : Version 1
    Format profile : Layer 3
    Mode : Joint stereo
    Mode extension : MS Stereo
    Codec ID : 55
    Codec ID/Hint : MP3
    Duration : 1h 33mn
    Bit rate mode : Constant
    Bit rate : 162.0 Kbps
    Channel(s) : 2 channels
    Sampling rate : 48.0 KHz
    Stream size : 84.3 MiB (14%)
    Alignment : Aligned on interleaves
    Interleave, duration : 28 ms (0.68 video frame)
    Interleave, preload duration : 015 ms
    Writing library : LAME3.91.











    Bir Part Boyutu: 200 MB - Toplam Boyut: 0,7 GB






    [HIDE]
     
    http://hotfile.com/dl/98864183/ad4d6a4/CSHTR.geompac.DRDRLMZ.DeVe.2010.vip.cshtr.com.part1.rar.html
    http://hotfile.com/dl/98864210/3c5d12a/CSHTR.geompac.DRDRLMZ.DeVe.2010.vip.cshtr.com.part2.rar.html
    http://hotfile.com/dl/98864959/95c7a8b/CSHTR.geompac.DRDRLMZ.DeVe.2010.vip.cshtr.com.part3.rar.html
    http://hotfile.com/dl/98865026/c31c422/CSHTR.geompac.DRDRLMZ.DeVe.2010.vip.cshtr.com.part4.rar.html
    [/HIDE]



    [HIDE]
     
    http://www.fileserve.com/file/fCNsDcw/CSHTR.geompac.DRDRLMZ.DeVe.2010.vip.cshtr.com.part1.rar
    http://www.fileserve.com/file/QmBVTqY/CSHTR.geompac.DRDRLMZ.DeVe.2010.vip.cshtr.com.part2.rar
    http://www.fileserve.com/file/AbxDUDT/CSHTR.geompac.DRDRLMZ.DeVe.2010.vip.cshtr.com.part3.rar
    http://www.fileserve.com/file/kNzC2Be/CSHTR.geompac.DRDRLMZ.DeVe.2010.vip.cshtr.com.part4.rar
    [/HIDE]



    [HIDE]
     
    http://netload.in/dateirGHYHIdeit/CSHTR.geompac.DRDRLMZ.DeVe.2010.vip.cshtr.com.part1.rar.htm
    http://netload.in/dateicXBAIPikBH/CSHTR.geompac.DRDRLMZ.DeVe.2010.vip.cshtr.com.part2.rar.htm
    http://netload.in/datei75OQ8QtKVv/CSHTR.geompac.DRDRLMZ.DeVe.2010.vip.cshtr.com.part3.rar.htm
    http://netload.in/dateiHb6xLvijWF/CSHTR.geompac.DRDRLMZ.DeVe.2010.vip.cshtr.com.part4.rar.htm
    [/HIDE]



    [HIDE]
     
    http://www.enterupload.com/d5w3yz9hvwd8/CSHTR.geompac.DRDRLMZ.DeVe.2010.vip.cshtr.com.part1.rar.html
    http://www.enterupload.com/kachxpygx5lf/CSHTR.geompac.DRDRLMZ.DeVe.2010.vip.cshtr.com.part2.rar.html
    http://www.enterupload.com/s7c26abm1rzo/CSHTR.geompac.DRDRLMZ.DeVe.2010.vip.cshtr.com.part3.rar.html
    http://www.enterupload.com/z3rkwp2wu3r8/CSHTR.geompac.DRDRLMZ.DeVe.2010.vip.cshtr.com.part4.rar.html
    [/HIDE]



    [HIDE]
     
    http://www.filefactory.com/file/b51eg3d/n/CSHTR.geompac.DRDRLMZ.DeVe.2010.vip.cshtr.com.part3.rar
    http://www.filefactory.com/file/b51eg2g/n/CSHTR.geompac.DRDRLMZ.DeVe.2010.vip.cshtr.com.part2.rar
    http://www.filefactory.com/file/b51eg2e/n/CSHTR.geompac.DRDRLMZ.DeVe.2010.vip.cshtr.com.part1.rar
    http://www.filefactory.com/file/b51eg3a/n/CSHTR.geompac.DRDRLMZ.DeVe.2010.vip.cshtr.com.part4.rar
    [/HIDE]







    www.cshtr.com






  2. #2

    Standart

    Ellerine sağlık. Denzel amcanın filmi ne keyifle izlenir

  3. #3

    Standart

    Film çıkalı 1,5 ay oldu sanırsam dvdrip çıkmadımı acaba? Çoğu filmler yok forumda, sanırım biraz ara verildi filmlere

  4. #4

    Standart

    teşekkürler

  5. #5

    Standart

    eline emegine saglık teşekkürler fakat dvix ini bekleyeceğim

  6. #6

    Standart

    teşekkürler...

  7. #7

    Standart

    teşekkürler bu arada Upload By geompac yanlış Uploaded By geompac olması gerekir....

  8. #8

    Standart

    görüntü kötü değil ama ses berbat. 480p ve diğerlerini bekleyin derim

  9. #9

    Standart

    Emeğin için çok teşekkürler..

  10. #10

    Genel Yönetici

    Standart

    konu içeriği güncellendi.

Benzer Konular

  1. Cevap: 14
    Son Mesaj : 19.Şubat.2013, 17:22
  2. Cevap: 7
    Son Mesaj : 25.Aralık.2012, 23:40
  3. Unstoppable | 2010 | DUAL | 720p BRRip | HF FS NL | Download | iNDiR
    Konu Sahibi geompac Forum 720p BRRip DuaL-TR
    Cevap: 5
    Son Mesaj : 30.Aralık.2011, 01:45
  4. Unstoppable | 2010 | DUAL | 480p BRRip | HF FS NL | Download | iNDiR
    Konu Sahibi geompac Forum 480p BRRip DuaL-TR
    Cevap: 4
    Son Mesaj : 25.Mayıs.2011, 10:35
  5. The Switch | 2010 | DVDRip XviD-VAMPS | HF | FS | NL | Download | iNDiR
    Konu Sahibi geompac Forum DVDRip | DVBRip Orj
    Cevap: 12
    Son Mesaj : 18.Şubat.2011, 18:23