emlaklik & sedatyucel

When We Leave | Ayrılık | 2010 | DVDRip AC3 | Hotfile | Netload | Download | iNDiR

When We Leave Ayrılık DVDRip AC3 X264 BARC0DE Language | Dublaj Dili : English Release Date | Gösterim Tarihi : 2010 Upload By MetaLyuM ( 22 Ağustos 2010 )

Bu konu 4899 kez görüntülendi ve 9 yorum aldı ...

    Konuyu değerlendir: When We Leave | Ayrılık | 2010 | DVDRip AC3 | Hotfile | Netload | Download | iNDiR

    5 üzerinden | Toplam: 0 kişi oyladı ve 4899 kez incelendi.


Toplam 10 adet sonuctan sayfa basi 1 ile 10 arasi kadar sonuc gösteriliyor
  1. #1

    Dvdrip When We Leave | Ayrılık | 2010 | DVDRip AC3 | Hotfile | Netload | Download | iNDiR


    When We Leave

    Ayrılık

    DVDRip AC3 X264 BARC0DE

    Language | Dublaj Dili : English
    Release Date | Gösterim Tarihi : 2010
    Upload By MetaLyuM ( 22 Ağustos 2010 )

    Uploader Notu : İyi Seyirler...

    Türkçe Altyazı İçin Tıklayın








    http://www.imdb.com/title/tt1288376/





    Alıntı

    Konusu

    Feo Aladağ�ın yönettiği ve Sibel Kekilli, Derya Alabora, Tamer Yiğit, Nursel Köse ile Nizam Schiller'ın oynadığı Ayrılık (When We Leave / Die Fremde), 21 Mayıs 2010�da Özen Film dağıtımıyla Özen Film tarafından vizyona çıkarılıyor.

    60'ncı Berlin Film Fetivali'nde de gösterilen Die Fremde adlı filmde Kekilli, Umay adlı türbanlı bir karakteri canlandırıyor. Umay, Almanya'da yaşayan genç bir kadındır. Evlendikten sonra İstanbul'a yerleşir. Ama burada koca şiddetiyle karşılaşır ve tekrar Berlin'e döner. Anca ailesi Umay'ı şereflerini lekelediği gerekçesiyle dışlar. Ve Umay kendi hayatını yaşamaya karar verir...


    Alıntı
    MEDiA iNFO
    -------------------------------------------------------------------------------

    General
    Complete name : When.We.Leave.2010.DVDRip.AC3. X264-BARC0DE.mkv
    Format : Matroska
    File size : 1.46 GiB
    Duration : 1h 54mn
    Overall bit rate : 1 818 Kbps

    Video
    ID : 1
    Format : AVC
    Format/Info : Advanced Video Codec
    Format profile : [email protected]
    Format settings, CABAC : Yes
    Format settings, ReFrames : 3 frames
    Muxing mode : Container [email protected]
    Codec ID : V_MPEG4/ISO/AVC
    Duration : 1h 54mn
    Bit rate : 1 374 Kbps
    Width : 720 pixels
    Height : 304 pixels
    Display aspect ratio : 2.35:1
    Frame rate : 25.000 fps
    Color space : YUV
    Chroma subsampling : 4:2:0
    Bit depth : 8 bits
    Scan type : Progressive
    Bits/(Pixel*Frame) : 0.251
    Stream size : 1.07 GiB (73%)
    Writing library : x264 core 79


    Audio
    ID : 2
    Format : AC-3
    Format/Info : Audio Coding 3
    Mode extension : CM (complete main)
    Codec ID : A_AC3
    Duration : 1h 54mn
    Bit rate mode : Constant
    Bit rate : 448 Kbps
    Channel(s) : 6 channels
    Channel positions : Front: L C R, Side: L R, LFE
    Sampling rate : 48.0 KHz
    Stream size : 367 MiB (25%)
    Language : German

    Text
    ID : 3
    Format : VobSub
    Codec ID : S_VOBSUB
    Codec ID/Info : The same subtitle format used on DVDs
    Language : English










    Bir Part Boyutu: 199 MB - Toplam Boyut: 1.4 GB




     
    http://hotfile.com/dl/63708836/a8ef387/When.We.Leave.2010.DVDRip.AC3.vip.cshtr.com.part1.rar.html
    http://hotfile.com/dl/63709352/6affd63/When.We.Leave.2010.DVDRip.AC3.vip.cshtr.com.part2.rar.html
    http://hotfile.com/dl/63709912/b395796/When.We.Leave.2010.DVDRip.AC3.vip.cshtr.com.part3.rar.html
    http://hotfile.com/dl/63710951/df1166b/When.We.Leave.2010.DVDRip.AC3.vip.cshtr.com.part4.rar.html
    http://hotfile.com/dl/63711909/f532d5c/When.We.Leave.2010.DVDRip.AC3.vip.cshtr.com.part5.rar.html
    http://hotfile.com/dl/63712676/80f56ef/When.We.Leave.2010.DVDRip.AC3.vip.cshtr.com.part6.rar.html
    http://hotfile.com/dl/63713432/ea0adb1/When.We.Leave.2010.DVDRip.AC3.vip.cshtr.com.part7.rar.html
    http://hotfile.com/dl/63714274/f458fde/When.We.Leave.2010.DVDRip.AC3.vip.cshtr.com.part8.rar.html

     
    http://www.enterupload.com/eepaegq1u7dc/When.We.Leave.2010.DVDRip.AC3.vip.cshtr.com.part1.rar.html
    http://www.enterupload.com/oyye4oo1bk8c/When.We.Leave.2010.DVDRip.AC3.vip.cshtr.com.part2.rar.html
    http://www.enterupload.com/d4fl0zdzxj2f/When.We.Leave.2010.DVDRip.AC3.vip.cshtr.com.part3.rar.html
    http://www.enterupload.com/bc636tc876li/When.We.Leave.2010.DVDRip.AC3.vip.cshtr.com.part4.rar.html
    http://www.enterupload.com/18k6bm53g64b/When.We.Leave.2010.DVDRip.AC3.vip.cshtr.com.part5.rar.html
    http://www.enterupload.com/x1k0jp4qusjl/When.We.Leave.2010.DVDRip.AC3.vip.cshtr.com.part6.rar.html
    http://www.enterupload.com/0kc8mb68r9hb/When.We.Leave.2010.DVDRip.AC3.vip.cshtr.com.part7.rar.html
    http://www.enterupload.com/os9afszhfbsm/When.We.Leave.2010.DVDRip.AC3.vip.cshtr.com.part8.rar.html

     
    http://www.fileserve.com/file/ZxnxNrA/When.We.Leave.2010.DVDRip.AC3.vip.cshtr.com.part1.rar
    http://www.fileserve.com/file/jErVVen/When.We.Leave.2010.DVDRip.AC3.vip.cshtr.com.part2.rar
    http://www.fileserve.com/file/Gghuyxz/When.We.Leave.2010.DVDRip.AC3.vip.cshtr.com.part3.rar
    http://www.fileserve.com/file/snsnmVe/When.We.Leave.2010.DVDRip.AC3.vip.cshtr.com.part4.rar
    http://www.fileserve.com/file/eykVugD/When.We.Leave.2010.DVDRip.AC3.vip.cshtr.com.part5.rar
    http://www.fileserve.com/file/cFqNtq4/When.We.Leave.2010.DVDRip.AC3.vip.cshtr.com.part7.rar
    http://www.fileserve.com/file/2fXaZgn/When.We.Leave.2010.DVDRip.AC3.vip.cshtr.com.part8.rar

    [HIDE]
     
    http://netload.in/dateiRLUFPM9Gkl/When.We.Leave.2010.DVDRip.AC3.vip.cshtr.com.part1.rar.htm
    http://netload.in/dateiIkAHOpQESg/When.We.Leave.2010.DVDRip.AC3.vip.cshtr.com.part2.rar.htm
    http://netload.in/dateidKE7vmjGSK/When.We.Leave.2010.DVDRip.AC3.vip.cshtr.com.part3.rar.htm
    http://netload.in/dateivs9dj21ptl/When.We.Leave.2010.DVDRip.AC3.vip.cshtr.com.part4.rar.htm
    http://netload.in/dateiqNch92RQcd/When.We.Leave.2010.DVDRip.AC3.vip.cshtr.com.part5.rar.htm
    http://netload.in/dateiLtPNKyQ29T/When.We.Leave.2010.DVDRip.AC3.vip.cshtr.com.part6.rar.htm
    http://netload.in/dateiRwkvWnLNyB/When.We.Leave.2010.DVDRip.AC3.vip.cshtr.com.part7.rar.htm
    http://netload.in/dateiuaQRRY45xL/When.We.Leave.2010.DVDRip.AC3.vip.cshtr.com.part8.rar.htm






    www.cshtr.com





  2. #2

    Standart

    ii de alt yazısı nerde?

  3. #3

    Standart

    altyazısı ortalıklarda yok.kimsenin alıp çevirdiği de yok ingilizce olsa ben çevireceğim de değil.almanca.:1100:

  4. #4

    Standart

    elinize sağlık

  5. #5

  6. #6

    Standart

    Altyazı için de teşekkürler.

  7. #7

    Standart Teşekkürler

    Sağolasınız var olasınız

  8. #8

    Standart

    Fileserve Part 6 yok...

  9. #9

    Standart

    teşekkürler

  10. #10

    Standart

    hell_yeah Nickli Üyeden Alıntı
    Fileserve Part 6 yok...
    Netload'u kullanabilirsiniz.

Benzer Konular

  1. Cevap: 2
    Son Mesaj : 02.Ocak.2013, 17:36
  2. Cevap: 1
    Son Mesaj : 02.Ocak.2013, 15:03
  3. Cevap: 1
    Son Mesaj : 25.Aralık.2012, 23:45